<?xml version="1.0" standalone="no"?>
<!DOCTYPE svg PUBLIC "-//W3C//DTD SVG 1.1//EN" "http://www.w3.org/Graphics/SVG/1.1/DTD/svg11.dtd" >
<svg>
<metadata>
Created by FontForge 20090914 at Thu Mar 21 07:03:36 2019
 By www-data
Copyright 2017 The EB Garamond Project Authors (https://github.com/octaviopardo/EBGaramond12)
</metadata>
<defs>
<font id="EBGaramond-Regular" horiz-adv-x="0" >
  <font-face 
    font-family="EB Garamond"
    font-weight="400"
    font-stretch="normal"
    units-per-em="1000"
    panose-1="0 0 5 0 0 0 0 0 0 0"
    ascent="800"
    descent="-200"
    x-height="405"
    cap-height="653"
    bbox="-289.993 -324 2500 985"
    underline-thickness="50"
    underline-position="-50"
    unicode-range="U+000D-U+1F44D"
  />
<missing-glyph horiz-adv-x="500" 
d="M50 473h400v-473h-400v473zM400 50v373h-300v-373h300z" />
    <glyph glyph-name="f_f" unicode="ff" horiz-adv-x="575" 
d="M649 689.5c18.667 -11 28.0029 -25.5029 28.0029 -43.5029c0 -12.667 -3.33301 -22.5 -10 -29.5s-14.667 -10.5 -24 -10.5c-4.66699 0 -8.83398 1.33301 -12.501 4s-7.66699 6 -12 10s-7.5 7 -9.5 9c-10.667 10.667 -22.334 19.334 -35.001 26.001s-29 10 -49 10
c-32.667 0 -58.834 -14.167 -78.501 -42.5s-29.5 -69.833 -29.5 -124.5v-88c0 -6.66699 3.66699 -10 11 -10h125c3.33301 0 6.33301 -1.16699 9 -3.5s4 -4.83301 4 -7.5c0 -11.333 -2 -21 -6 -29c-2 -5.33301 -5 -8 -9 -8h-115c-7.33301 0 -12.333 -1 -15 -3
s-4 -5.33301 -4 -10v-271c0 -14 4.5 -24.167 13.5 -30.5s26.5 -10.833 52.5 -13.5c15.333 -2 23 -7.33301 23 -16c0 -7.33301 -6.66699 -11 -20 -11c-20 0 -38 1 -54 3c-21.333 1.33301 -37.333 2 -48 2c-12 0 -24.667 -0.666992 -38 -2c-12 -2 -27 -3 -45 -3
c-13.333 0 -20 3.66699 -20 11c0 4.66699 1.83301 8 5.5 10s9.5 4 17.5 6c16 3.33301 27.167 8.16602 33.5 14.499s9.5 16.166 9.5 29.499v282c-20.667 0 -38 0.666992 -52 2h-95c-16.667 0 -27.5 -1.33301 -32.5 -4s-7.5 -7 -7.5 -13v-267c0 -12 4.16699 -21.667 12.5 -29
s18.5 -12.333 30.5 -15c8 -2 13.833 -4 17.5 -6s5.5 -5.33301 5.5 -10c0 -7.33301 -6.66699 -11 -20 -11c-18 0 -32 1 -42 3c-13.333 1.33301 -25.666 2 -36.999 2c-12 0 -24.667 -0.666992 -38 -2c-12 -2 -27 -3 -45 -3c-13.333 0 -20 3.66699 -20 11
c0 4.66699 1.66699 7.83398 5 9.50098s9.33301 3.83398 18 6.50098c28.667 8.66699 43 23.334 43 44.001v282c-20.667 0 -38 0.666992 -52 2c-2 0.666992 -4.83301 3 -8.5 7s-5.5 7.66699 -5.5 11c0 2 2.33301 4 7 6c14.667 4 27 8.66699 37 14l22 12
c0 58.667 11.667 107.667 35 147s52 68.333 86 87s67 28 99 28c22.667 0 43.167 -3.16699 61.5 -9.5s32.5 -14.166 42.5 -23.499c21.333 26 45.666 45 72.999 57s54 18 80 18c36 0 63.333 -5.5 82 -16.5zM335.003 399.997l12.001 5.99902c0 64 10.333 119.333 31 166
c-4 2.66699 -10.333 8.33398 -19 17.001c-22.667 22.667 -51.334 34 -86.001 34c-35.333 0 -63 -15.5 -83 -46.5s-30 -78.833 -30 -143.5v-11c0 -14.667 8.33301 -22 25 -22h150z" />
    <glyph glyph-name="f_f_i" unicode="ffi" horiz-adv-x="776" 
d="M751.5 16.5c3.66699 -2.33301 5.50195 -5.83594 5.50195 -10.5029c0 -6 -6.66699 -9 -20 -9c-17.333 0 -31.666 1 -42.999 3c-14.667 1.33301 -27.334 2 -38.001 2s-23.334 -0.666992 -38.001 -2c-10.667 -2 -25 -3 -43 -3c-13.333 0 -20 3 -20 9
c0 4.66699 1.83301 8.16699 5.5 10.5s9.5 4.83301 17.5 7.5c13.333 4 23.833 9.16699 31.5 15.5s11.5 15.833 11.5 28.5v211c0 19.333 -4 35.5 -12 48.5s-20 21.167 -36 24.5c-2 0.666992 -20 1 -54 1c-28.667 0 -49 -0.333008 -61 -1
c-18 -0.666992 -29.167 -2.5 -33.5 -5.5s-6.5 -7.83301 -6.5 -14.5v-264c0 -12.667 3.83301 -22.167 11.5 -28.5s18.167 -11.5 31.5 -15.5c8 -2.66699 13.833 -5.16699 17.5 -7.5s5.5 -5.83301 5.5 -10.5c0 -6 -6.66699 -9 -20 -9c-17.333 0 -31.666 1 -42.999 3
c-14.667 1.33301 -27.334 2 -38.001 2s-23.334 -0.666992 -38.001 -2c-10.667 -2 -25 -3 -43 -3c-13.333 0 -20 3 -20 9c0 4.66699 1.83301 8.16699 5.5 10.5s9.5 4.83301 17.5 7.5c13.333 4 23.833 9.16699 31.5 15.5s11.5 15.833 11.5 28.5v282h-19.5
c-10.333 0 -21.166 0.666992 -32.499 2h-96c-16.667 0 -27.5 -1.33301 -32.5 -4s-7.5 -7 -7.5 -13v-267c0 -12 4.16699 -21.667 12.5 -29s18.5 -12.333 30.5 -15c8 -2 13.833 -4 17.5 -6s5.5 -5.33301 5.5 -10c0 -7.33301 -6.66699 -11 -20 -11c-18 0 -32 1 -42 3
c-13.333 1.33301 -25.666 2 -36.999 2c-12 0 -24.667 -0.666992 -38 -2c-12 -2 -27 -3 -45 -3c-13.333 0 -20 3.66699 -20 11c0 4.66699 1.66699 7.83398 5 9.50098s9.33301 3.83398 18 6.50098c28.667 8.66699 43 23.334 43 44.001v282c-20.667 0 -38 0.666992 -52 2
c-2 0.666992 -4.83301 3 -8.5 7s-5.5 7.66699 -5.5 11c0 2 2.33301 4 7 6c14.667 4 27 8.66699 37 14l22 12c0 58.667 11.667 107.667 35 147s52 68.333 86 87s67 28 99 28c25.333 0 47.5 -3.66699 66.5 -11s33.167 -16.333 42.5 -27c24 27.333 51.5 47.5 82.5 60.5
s60.5 19.5 88.5 19.5c35.333 0 65.833 -5.16699 91.5 -15.5s38.5 -26.833 38.5 -49.5c0 -17.333 -4.83301 -30.333 -14.5 -39s-21.5 -13 -35.5 -13c-6.66699 0 -12.334 2 -17.001 6s-9 8.66699 -13 14s-7 9 -9 11c-10.667 14 -22.334 25.167 -35.001 33.5
s-29.334 12.5 -50.001 12.5c-22.667 0 -43.667 -6.83301 -63 -20.5s-35 -34.834 -47 -63.501s-18 -64.334 -18 -107.001v-55c0 -7.33301 2 -12.166 6 -14.499s10.333 -4.16602 19 -5.49902c43.333 -4.66699 82.333 -7 117 -7c38.667 0 63.334 2.33301 74.001 7
c4 2.66699 8.83301 5.66699 14.5 9s11.5 7 17.5 11l21 13c1.33301 0.666992 3 1 5 1c4.66699 0 7 -1.66699 7 -5c-0.666992 -4 -2.16699 -18.5 -4.5 -43.5s-3.5 -61.833 -3.5 -110.5v-207c0 -12.667 3.83301 -22.167 11.5 -28.5s18.167 -11.5 31.5 -15.5
c8 -2.66699 13.833 -5.16699 17.5 -7.5zM344.002 399.997l4.00098 2c0 66 11.333 121.667 34 167c-3.33301 2 -7.33301 5.16699 -12 9.5l-11 10.5c-22.667 22.667 -51.334 34 -86.001 34c-35.333 0 -63 -15.5 -83 -46.5s-30 -78.833 -30 -143.5v-11
c0 -14.667 8.33301 -22 25 -22h159z" />
    <glyph glyph-name="f_f_l" unicode="ffl" horiz-adv-x="761" 
d="M736.5 16.5c3.66699 -2.33301 5.49902 -5.83594 5.49902 -10.5029c0 -6 -6.66699 -9 -20 -9c-17.333 0 -31.666 1 -42.999 3c-14.667 1.33301 -27.334 2 -38.001 2s-23.334 -0.666992 -38.001 -2c-10.667 -2 -25 -3 -43 -3c-13.333 0 -20 3 -20 9
c0 4.66699 1.83301 8.16699 5.5 10.5s9.5 4.83301 17.5 7.5c13.333 4 24 9.16699 32 15.5s12 15.833 12 28.5v274c0 3.33301 -1.16699 5.83301 -3.5 7.5s-4.83301 2.5 -7.5 2.5h-138c-18 0 -29.167 -1.5 -33.5 -4.5s-6.5 -8.16699 -6.5 -15.5v-264
c0 -12.667 3.83301 -22.167 11.5 -28.5s18.167 -11.5 31.5 -15.5c8 -2.66699 13.833 -5.16699 17.5 -7.5s5.5 -5.83301 5.5 -10.5c0 -6 -6.66699 -9 -20 -9c-17.333 0 -31.666 1 -42.999 3c-14.667 1.33301 -27.334 2 -38.001 2s-23.334 -0.666992 -38.001 -2
c-10.667 -2 -25 -3 -43 -3c-13.333 0 -20 3 -20 9c0 4.66699 1.83301 8.16699 5.5 10.5s9.5 4.83301 17.5 7.5c13.333 4 23.833 9.16699 31.5 15.5s11.5 15.833 11.5 28.5v282c-25.333 0 -45 0.666992 -59 2h-89c-16.667 0 -27.5 -1.33301 -32.5 -4s-7.5 -7 -7.5 -13v-267
c0 -12 4.16699 -21.667 12.5 -29s18.5 -12.333 30.5 -15c8 -2 13.833 -4 17.5 -6s5.5 -5.33301 5.5 -10c0 -7.33301 -6.66699 -11 -20 -11c-18 0 -32 1 -42 3c-13.333 1.33301 -25.666 2 -36.999 2c-12 0 -24.667 -0.666992 -38 -2c-12 -2 -27 -3 -45 -3
c-13.333 0 -20 3.66699 -20 11c0 4.66699 1.66699 7.83398 5 9.50098s9.33301 3.83398 18 6.50098c28.667 8.66699 43 23.334 43 44.001v282c-20.667 0 -38 0.666992 -52 2c-2 0.666992 -4.83301 3 -8.5 7s-5.5 7.66699 -5.5 11c0 2 2.33301 4 7 6
c14.667 4 27 8.66699 37 14l22 12c0 58.667 11.667 107.667 35 147s52 68.333 86 87s67 28 99 28c25.333 0 47.5 -3.66699 66.5 -11s33.5 -16.333 43.5 -27c24 28 51.333 48.333 82 61s60 19 88 19c20.667 0 38.334 -2.66699 53.001 -8c1.33301 0 3.5 -0.5 6.5 -1.5
s5.83301 -0.833008 8.5 0.5c7.33301 3.33301 12 5.33301 14 6c1.33301 0.666992 3 1 5 1c4 0 6 -2 6 -6s-1 -16.667 -3 -38s-3 -54 -3 -98v-494c0 -12.667 3.83301 -22.167 11.5 -28.5s17.834 -11.5 30.501 -15.5c8 -2.66699 13.833 -5.16699 17.5 -7.5zM606.999 565.997
c0 27.333 -3.66797 50.835 -11.001 70.502s-24.666 29.5 -51.999 29.5c-22 0 -42.5 -6.83301 -61.5 -20.5s-34.5 -34.834 -46.5 -63.501s-18 -64.334 -18 -107.001v-55c0 -13.333 8.33301 -20 25 -20h155c6 0 9 3.33301 9 10v156zM343.998 399.999l4.00098 2
c0.666992 65.333 12.334 121 35.001 167c-4 2 -8.33301 5.33301 -13 10s-8.33398 8 -11.001 10c-22.667 22.667 -51.334 34 -86.001 34c-35.333 0 -63 -15.5 -83 -46.5s-30 -78.833 -30 -143.5v-11c0 -14.667 8.33301 -22 25 -22h159z" />
    <glyph glyph-name="f_i" unicode="fi" horiz-adv-x="518" 
d="M24 6c0 4.66699 1.83594 8.16699 5.50293 10.5s9.5 4.83301 17.5 7.5c13.333 4 23.833 9.16699 31.5 15.5s11.5 15.833 11.5 28.5v282h-19.5c-10.333 0 -21.166 0.666992 -32.499 2c-3.33301 0.666992 -6 2.66699 -8 6s-3 7.33301 -3 12s3.66699 8 11 10
c11.333 3.33301 21.5 7.33301 30.5 12s16.167 8 21.5 10c0 74 13.167 133.667 39.5 179s58 77.5 95 96.5s72.833 28.5 107.5 28.5c35.333 0 65.833 -5.16699 91.5 -15.5s38.5 -26.833 38.5 -49.5c0 -17.333 -4.83301 -30.333 -14.5 -39s-21.5 -13 -35.5 -13
c-6.66699 0 -12.334 2 -17.001 6s-9 8.66699 -13 14s-7 9 -9 11c-10.667 14 -22.334 25.167 -35.001 33.5s-29.334 12.5 -50.001 12.5c-22.667 0 -43.667 -6.83301 -63 -20.5s-35 -34.834 -47 -63.501s-18 -64.334 -18 -107.001v-55c0 -7.33301 2 -12.166 6 -14.499
s10.333 -4.16602 19 -5.49902c43.333 -4.66699 82.333 -7 117 -7c38.667 0 63.334 2.33301 74.001 7c4 2.66699 8.83301 5.66699 14.5 9s11.5 7 17.5 11l21 13c1.33301 0.666992 3 1 5 1c4.66699 0 7 -1.66699 7 -5c-0.666992 -4 -2.16699 -18.5 -4.5 -43.5
s-3.5 -61.833 -3.5 -110.5v-207c0 -12.667 3.83301 -22.167 11.5 -28.5s18.167 -11.5 31.5 -15.5c8 -2.66699 13.833 -5.16699 17.5 -7.5s5.5 -5.83301 5.5 -10.5c0 -6 -6.66699 -9 -20 -9c-17.333 0 -31.666 1 -42.999 3c-14.667 1.33301 -27.334 2 -38.001 2
s-23.334 -0.666992 -38.001 -2c-10.667 -2 -25 -3 -43 -3c-13.333 0 -20 3 -20 9c0 4.66699 1.83301 8.16699 5.5 10.5s9.5 4.83301 17.5 7.5c13.333 4 23.833 9.16699 31.5 15.5s11.5 15.833 11.5 28.5v211c0 19.333 -4 35.5 -12 48.5s-20 21.167 -36 24.5
c-2 0.666992 -20 1 -54 1c-28.667 0 -49 -0.333008 -61 -1c-18 -0.666992 -29.167 -2.5 -33.5 -5.5s-6.5 -7.83301 -6.5 -14.5v-264c0 -12.667 3.83301 -22.167 11.5 -28.5s18.167 -11.5 31.5 -15.5c8 -2.66699 13.833 -5.16699 17.5 -7.5s5.5 -5.83301 5.5 -10.5
c0 -6 -6.66699 -9 -20 -9c-17.333 0 -31.666 1 -42.999 3c-14.667 1.33301 -27.334 2 -38.001 2s-23.334 -0.666992 -38.001 -2c-10.667 -2 -25 -3 -43 -3c-13.333 0 -20 3 -20 9z" />
    <glyph glyph-name="f_l" unicode="fl" horiz-adv-x="506" 
d="M27 6c0 4.66699 1.83105 8.16699 5.49805 10.5s9.5 4.83301 17.5 7.5c13.333 4 23.833 9.16699 31.5 15.5s11.5 15.833 11.5 28.5v282c-25.333 0 -45 0.666992 -59 2c-2 0.666992 -4.16699 3.16699 -6.5 7.5s-3.5 8.16602 -3.5 11.499c0 2.66699 1 4.33398 3 5.00098
c16 4 30 8.83301 42 14.5l24 11.5c0.666992 74 14.334 133.667 41.001 179s58.334 77.5 95.001 96.5s72 28.5 106 28.5c20.667 0 38.334 -2.66699 53.001 -8c1.33301 0 3.5 -0.5 6.5 -1.5s5.83301 -0.833008 8.5 0.5c7.33301 3.33301 12 5.33301 14 6
c1.33301 0.666992 3 1 5 1c4 0 6 -2 6 -6s-1 -16.667 -3 -38s-3 -54 -3 -98v-494c0 -12.667 3.83301 -22.167 11.5 -28.5s17.834 -11.5 30.501 -15.5c8 -2.66699 13.833 -5.16699 17.5 -7.5s5.5 -5.83301 5.5 -10.5c0 -6 -6.66699 -9 -20 -9c-17.333 0 -31.666 1 -42.999 3
c-14.667 1.33301 -27.334 2 -38.001 2s-23.334 -0.666992 -38.001 -2c-10.667 -2 -25 -3 -43 -3c-13.333 0 -20 3 -20 9c0 4.66699 1.83301 8.16699 5.5 10.5s9.5 4.83301 17.5 7.5c13.333 4 24 9.16699 32 15.5s12 15.833 12 28.5v274c0 3.33301 -1.16699 5.83301 -3.5 7.5
s-4.83301 2.5 -7.5 2.5h-138c-18 0 -29.167 -1.5 -33.5 -4.5s-6.5 -8.16699 -6.5 -15.5v-264c0 -12.667 3.83301 -22.167 11.5 -28.5s18.167 -11.5 31.5 -15.5c8 -2.66699 13.833 -5.16699 17.5 -7.5s5.5 -5.83301 5.5 -10.5c0 -6 -6.66699 -9 -20 -9
c-17.333 0 -31.666 1 -42.999 3c-14.667 1.33301 -27.334 2 -38.001 2s-23.334 -0.666992 -38.001 -2c-10.667 -2 -25 -3 -43 -3c-13.333 0 -20 3 -20 9zM342.998 400c6 0 8.99902 3.33496 8.99902 10.002v156c0 27.333 -3.66699 50.833 -11 70.5s-24.666 29.5 -51.999 29.5
c-22 0 -42.5 -6.83301 -61.5 -20.5s-34.5 -34.834 -46.5 -63.501s-18 -64.334 -18 -107.001v-55c0 -13.333 8.33301 -20 25 -20h155z" />
    <glyph glyph-name=".notdef" horiz-adv-x="500" 
d="M50 473h400v-473h-400v473zM400 50v373h-300v-373h300z" />
    <glyph glyph-name="NULL" 
 />
    <glyph glyph-name="nonmarkingreturn" unicode="&#xd;" horiz-adv-x="200" 
 />
    <glyph glyph-name="space" unicode=" " horiz-adv-x="200" 
 />
    <glyph glyph-name="exclam" unicode="!" horiz-adv-x="250" 
d="M111 213.5c-2.66699 5.66699 -4.66602 15.833 -5.99902 30.5c-6.66699 61.333 -12.667 127.5 -18 198.5s-8 121.5 -8 151.5c0 14.667 4.5 27.5 13.5 38.5s20.167 16.5 33.5 16.5s24.166 -5.5 32.499 -16.5s12.5 -23.833 12.5 -38.5c0 -44.667 -10 -161.334 -30 -350.001
c-1.33301 -11.333 -3.5 -20.666 -6.5 -27.999s-6.83301 -11 -11.5 -11c-5.33301 0 -9.33301 2.83301 -12 8.5zM82.501 3.49902c-11.667 11.667 -17.5 25.834 -17.5 42.501s5.83301 30.834 17.5 42.501s25.834 17.5 42.501 17.5s30.834 -5.83301 42.501 -17.5
s17.5 -25.834 17.5 -42.501s-5.83301 -30.834 -17.5 -42.501s-25.834 -17.5 -42.501 -17.5s-30.834 5.83301 -42.501 17.5z" />
    <glyph glyph-name="quotedbl" unicode="&#x22;" horiz-adv-x="330" 
d="M67 451.5c-1.33301 5 -1.99805 10.1699 -1.99805 15.5029c0.666992 14 1 33 1 57c0 20.667 -0.666992 41.667 -2 63s-2 32.333 -2 33c0 6.66699 2 13.167 6 19.5s8.33301 11.5 13 15.5c9.33301 7.33301 17 12.666 23 15.999s12.667 5 20 5c4.66699 0 8.16699 -3 10.5 -9
s3.5 -13.667 3.5 -23c0 -22.667 -5.16699 -50.834 -15.5 -84.501s-20.833 -63.834 -31.5 -90.501c-2.66699 -6 -5.83398 -11.667 -9.50098 -17s-6.83398 -8 -9.50098 -8c-2 0 -3.66699 2.5 -5 7.5zM197.002 451.503c-1.33301 5 -1.99805 10.1699 -1.99805 15.5029
c0.666992 14 1 33 1 57c0 20.667 -0.666992 41.667 -2 63s-2 32.333 -2 33c0 6.66699 2 13.167 6 19.5s8.33301 11.5 13 15.5c9.33301 7.33301 17 12.666 23 15.999s12.667 5 20 5c4.66699 0 8.16699 -3 10.5 -9s3.5 -13.667 3.5 -23
c0 -22.667 -5.16699 -50.834 -15.5 -84.501s-20.833 -63.834 -31.5 -90.501c-2.66699 -6 -5.83398 -11.667 -9.50098 -17s-6.83398 -8 -9.50098 -8c-2 0 -3.66699 2.5 -5 7.5z" />
    <glyph glyph-name="numbersign" unicode="#" horiz-adv-x="468" 
d="M53 -75.5c-2 2.33301 -2.99805 5.16797 -2.99805 8.50098v3l44 177l-63 -3c-3.33301 0 -6.5 1.16699 -9.5 3.5s-4.5 5.16602 -4.5 8.49902c0 9.33301 1.66699 19.5 5 30.5s9.66602 16.833 18.999 17.5l67 3l34 138l-64 -3c-3.33301 0 -6.5 1.16699 -9.5 3.5
s-4.5 5.16602 -4.5 8.49902c0 9.33301 1.66699 19.5 5 30.5s9.66602 16.833 18.999 17.5l69 3l42 171c2.66699 11.333 13.667 17 33 17c2.66699 0 4.66699 -1.16699 6 -3.5s2 -5.16602 2 -8.49902l-1 -5l-41 -169l113 6l43 174c2.66699 11.333 13.667 17 33 17
c2.66699 0 4.66699 -1.16699 6 -3.5s2 -5.16602 2 -8.49902l-1 -5l-42 -172l59 3c3.33301 0 6.33301 -1 9 -3s4 -4.66699 4 -8c0 -8 -2.83301 -18 -8.5 -30s-13.167 -18.333 -22.5 -19l-56 -3l-34 -138l61 3c3.33301 0 6.33301 -1.16699 9 -3.5s4 -5.16602 4 -8.49902
c0 -8 -2.83301 -17.833 -8.5 -29.5s-13.167 -17.834 -22.5 -18.501l-58 -3l-43 -176c-2 -10 -12 -15 -30 -15c-2.66699 0 -5 1.16699 -7 3.5s-3 5.16602 -3 8.49902v3l43 174l-114 -6l-44 -179c-2 -10 -12 -15 -30 -15c-2.66699 0 -5 1.16699 -7 3.5zM263.002 181.002
l33 138l-113 -6l-34 -138z" />
    <glyph glyph-name="dollar" unicode="$" horiz-adv-x="441" 
d="M159.5 -76.5c-3 3.66699 -4.16602 8.49805 -3.49902 14.498l9 71v2c0 4.66699 -2.33301 7 -7 7c-35.333 6 -67.666 20.333 -96.999 43c-0.666992 0.666992 -2.5 2.83398 -5.5 6.50098s-5.16699 7.5 -6.5 11.5c-2.66699 9.33301 -4.5 22.166 -5.5 38.499
s-1.83301 27.166 -2.5 32.499c0 11.333 -0.333008 19.333 -1 24c0 4 1.66699 7 5 9s7.66602 3 12.999 3c9.33301 0 14.333 -3.33301 15 -10c16.667 -60 46 -98.667 88 -116c2 -1.33301 4 -1.83301 6 -1.5s3 1.5 3 3.5l27 229v3c0 4.66699 -4 9.33398 -12 14.001
c-40.667 24 -72.334 47.833 -95.001 71.5s-34 52.5 -34 86.5c0 45.333 15.333 83.5 46 114.5s74 48.167 130 51.5c2.66699 0 5 0.666992 7 2s3 2.66602 3 3.99902l7 57c2 11.333 11.667 17 29 17c3.33301 0 6.33301 -1.66699 9 -5s4 -6.66602 4 -9.99902l-7 -60
c0 -4 2 -6.33301 6 -7c16 -2.66699 37 -9.33398 63 -20.001c9.33301 -2.66699 16 -10 20 -22c1.33301 -5.33301 4.83301 -17.666 10.5 -36.999s8.5 -36.666 8.5 -51.999c0 -6.66699 -4.66699 -10 -14 -10c-6 0 -11.667 1.16699 -17 3.5s-8.66602 5.16602 -9.99902 8.49902
c-19.333 46 -43.333 75 -72 87c-1.33301 0 -2.33301 -0.5 -3 -1.5s-1 -2.16699 -1 -3.5l-24 -198l-1 -5c0 -2 1.16699 -4 3.5 -6s5.5 -4.33301 9.5 -7c42.667 -24.667 75.834 -49.667 99.501 -75s35.5 -58 35.5 -98c0 -50.667 -16.667 -92.167 -50 -124.5
s-78 -50.166 -134 -53.499c-5.33301 0 -8.33301 -2.33301 -9 -7l-9 -76c-0.666992 -5.33301 -3.33398 -9.16602 -8.00098 -11.499s-10.334 -3.5 -17.001 -3.5c-4.66699 0 -8.5 1.83301 -11.5 5.5zM212.001 404.998l21.999 182.002c0 5.33301 -2.33301 8 -7 8
c-62 -4.66699 -93 -37.334 -93 -98.001c0 -17.333 5.83301 -33.333 17.5 -48s28.834 -29.667 51.501 -45c6 -2.66699 9 -2.33398 9 0.999023zM291.5 84c18.333 18.667 27.5 43.333 27.5 74c0 28 -6 50.167 -18 66.5s-31.333 32.833 -58 49.5
c-2 0.666992 -3.66699 0.5 -5 -0.5s-2 -2.5 -2 -4.5l-25 -206c0 -4 0.5 -6.66699 1.5 -8s3.16699 -2 6.5 -2c30 2 54.167 12.333 72.5 31z" />
    <glyph glyph-name="percent" unicode="%" horiz-adv-x="650" 
d="M73 288.5c-19.333 17 -33.833 38.832 -43.5 65.499s-14.5 54.667 -14.5 84c0 30 6 58.667 18 86s29 49.333 51 66s47.333 25 76 25c26 0 48.333 -8 67 -24s33 -36.667 43 -62s15 -52 15 -80c0 -31.333 -5.66699 -61.166 -17 -89.499s-27.833 -51.5 -49.5 -69.5
s-47.167 -27 -76.5 -27c-26.667 0 -49.667 8.5 -69 25.5zM211 327.999c9.33301 28.667 14.002 65 14.002 109c0 43.333 -5.16699 79.666 -15.5 108.999s-30.5 44 -60.5 44c-28 0 -47.333 -13.667 -58 -41s-16 -60.666 -16 -99.999c0 -47.333 5.16699 -86.5 15.5 -117.5
s31.166 -46.5 62.499 -46.5c29.333 0 48.666 14.333 57.999 43zM517.502 661.499c6.33301 2.33301 14.168 3.49902 23.501 3.49902c3.33301 0 6.5 -1.33301 9.5 -4s4.5 -5.66699 4.5 -9c0 -2 -0.333008 -3.33301 -1 -4l-438 -695c-4 -6 -8.83301 -10 -14.5 -12
s-12.834 -3 -21.501 -3c-4 0 -7.83301 1.33301 -11.5 4s-5.5 5.33398 -5.5 8.00098c0 1.33301 0.333008 2.33301 1 3l438 695c4 6.66699 9.16699 11.167 15.5 13.5zM423.004 8.49805c-19.333 17 -33.833 38.832 -43.5 65.499s-14.5 54.667 -14.5 84c0 30 6 58.667 18 86
s29 49.333 51 66s47.333 25 76 25c26 0 48.333 -8 67 -24s33 -36.667 43 -62s15 -52 15 -80c0 -31.333 -5.66699 -61.166 -17 -89.499s-27.833 -51.5 -49.5 -69.5s-47.167 -27 -76.5 -27c-26.667 0 -49.667 8.5 -69 25.5zM561.004 47.9971
c9.33301 28.667 14.002 65 14.002 109c0 43.333 -5.16699 79.666 -15.5 108.999s-30.5 44 -60.5 44c-28 0 -47.333 -13.667 -58 -41s-16 -60.666 -16 -99.999c0 -47.333 5.16699 -86.5 15.5 -117.5s31.166 -46.5 62.499 -46.5c29.333 0 48.666 14.333 57.999 43z" />
    <glyph glyph-name="ampersand" unicode="&#x26;" horiz-adv-x="756" 
d="M121.5 3.5c-26.333 12.333 -46.8311 29.1719 -61.498 50.5049s-22 45.666 -22 72.999c0 50 14.833 92.333 44.5 127s70.5 64 122.5 88l20 9l-15 16c-3.33301 4 -11 12.167 -23 24.5s-22 26.333 -30 42s-12 32.5 -12 50.5c0 22.667 6.66699 42.667 20 60
s30.666 30.833 51.999 40.5s43.666 14.5 66.999 14.5c26.667 0 49.667 -6.33301 69 -19s33.833 -28.334 43.5 -47.001s14.5 -37.334 14.5 -56.001c0.666992 -48.667 -34.333 -86 -105 -112l-14 -5l13 -14c8.66699 -10 16.667 -18.5 24 -25.5s13.666 -13.5 18.999 -19.5
c19.333 -19.333 35.5 -36.333 48.5 -51s25.833 -31 38.5 -49l12 -18l18 19c24 26 48.333 55.667 73 89s37 53.666 37 60.999c0 4.66699 -2.66699 10.167 -8 16.5s-12 10.166 -20 11.499c-2 0.666992 -4.5 2.33398 -7.5 5.00098s-4.5 4.66699 -4.5 6c0 4 2.5 6.83301 7.5 8.5
s9.83301 2.5 14.5 2.5l22 -2c34 -2 50.333 -3 49 -3c11.333 0 29 2.66699 53 8c18.667 4.66699 33 7 43 7c2 0 4.5 -1 7.5 -3s4.5 -4 4.5 -6c0 -4 -3 -8 -9 -12s-11.333 -6.33301 -16 -7c-27.333 -2 -51.666 -12.333 -72.999 -31
c-5.33301 -4.66699 -32.166 -32.5 -80.499 -83.5l-98.5 -104.5l17 -24c23.333 -33.333 45.166 -58.5 65.499 -75.5s42.5 -25.5 66.5 -25.5c31.333 0 57.333 6 78 18c5.33301 3.33301 11 5 17 5c4.66699 0 7.83398 -0.833008 9.50098 -2.5s2.5 -4.83398 2.5 -9.50098
c0 -6 -7.16699 -14.333 -21.5 -25s-31.5 -20.167 -51.5 -28.5s-38.667 -12.5 -56 -12.5c-24.667 0 -45.167 4 -61.5 12s-31 19.667 -44 35s-29.167 38.333 -48.5 69l-13 21l-6 -6l-21 -23c-22.667 -25.333 -41.834 -45 -57.501 -59s-33.5 -25.667 -53.5 -35s-43 -14 -69 -14
c-34 0 -64.167 6.16699 -90.5 18.5zM292.002 382.006c17.333 8 30.834 21.333 40.501 40s14.5 38.667 14.5 60c0 24.667 -5.83301 46 -17.5 64s-28.5 27 -50.5 27c-20 0 -37.667 -6.16699 -53 -18.5s-23 -27.5 -23 -45.5c0 -20.667 3.66699 -38.5 11 -53.5
s23.666 -35.833 48.999 -62.5l16 -17zM322.003 70.0059c24.667 13.333 49.999 33.667 75.999 61l9 9l-12 19c-10.667 16.667 -23.667 33.667 -39 51s-34.666 38 -57.999 62l-46 49l-12 13l-21 -8c-42 -16 -69.833 -38.333 -83.5 -67s-20.5 -61.667 -20.5 -99
c0 -31.333 11.5 -57.5 34.5 -78.5s52.5 -31.5 88.5 -31.5c31.333 0 59.333 6.66699 84 20z" />
    <glyph glyph-name="quotesingle" unicode="'" horiz-adv-x="200" 
d="M67 451.5c-1.33301 5 -1.99805 10.1699 -1.99805 15.5029c0.666992 14 1 33 1 57c0 20.667 -0.666992 41.667 -2 63s-2 32.333 -2 33c0 6.66699 2 13.167 6 19.5s8.33301 11.5 13 15.5c9.33301 7.33301 17 12.666 23 15.999s12.667 5 20 5c4.66699 0 8.16699 -3 10.5 -9
s3.5 -13.667 3.5 -23c0 -22.667 -5.16699 -50.834 -15.5 -84.501s-20.833 -63.834 -31.5 -90.501c-2.66699 -6 -5.83398 -11.667 -9.50098 -17s-6.83398 -8 -9.50098 -8c-2 0 -3.66699 2.5 -5 7.5z" />
    <glyph glyph-name="parenleft" unicode="(" horiz-adv-x="315" 
d="M220 -207c-24.667 24.667 -51.165 64.3359 -79.498 119.003s-52.166 114.5 -71.499 179.5s-29 124.167 -29 177.5s9.33301 108 28 164s41.667 107.167 69 153.5s53.666 82.166 78.999 107.499c3.33301 3.33301 7.5 6 12.5 8s9.83301 3 14.5 3c4 0 8.66699 -1.66699 14 -5
s8 -7 8 -11c-0.666992 -2.66699 -2.5 -6 -5.5 -10s-5.5 -7 -7.5 -9c-34.667 -40 -64.834 -95.167 -90.501 -165.5s-38.5 -144.833 -38.5 -223.5c0 -54.667 6.16699 -112.834 18.5 -174.501s28.333 -117.834 48 -168.501s39.5 -87.667 59.5 -111
c1.33301 -2 4.16602 -5.5 8.49902 -10.5s6.5 -7.83301 6.5 -8.5c0 -6.66699 -2.66699 -12 -8 -16s-11.666 -6 -18.999 -6c-6.66699 0 -12.334 2.33301 -17.001 7z" />
    <glyph glyph-name="parenright" unicode=")" horiz-adv-x="315" 
d="M59 -208c-5.33301 4 -7.99805 9.33105 -7.99805 15.998c0 0.666992 2.16699 3.5 6.5 8.5s7.16602 8.5 8.49902 10.5c20 23.333 39.833 60.333 59.5 111s35.667 106.834 48 168.501s18.5 119.834 18.5 174.501c0 78.667 -12.833 153.167 -38.5 223.5
s-55.834 125.5 -90.501 165.5c-2 2 -4.5 5 -7.5 9s-4.83301 7.33301 -5.5 10c0 4 2.66699 7.66699 8 11s10 5 14 5c4.66699 0 9.5 -1 14.5 -3s9.16699 -4.66699 12.5 -8c25.333 -25.333 51.666 -61.166 78.999 -107.499s50.333 -97.5 69 -153.5s28 -110.667 28 -164
s-9.66699 -112.5 -29 -177.5s-43.166 -124.833 -71.499 -179.5s-54.833 -94.334 -79.5 -119.001c-4.66699 -4.66699 -10.334 -7 -17.001 -7c-7.33301 0 -13.666 2 -18.999 6z" />
    <glyph glyph-name="asterisk" unicode="*" horiz-adv-x="340" 
d="M173 377.5c-3.33301 3.66699 -5.33301 7.83398 -6 12.501l-13 92c-18 -12.667 -44.333 -29.334 -79 -50.001c-2.66699 -2.66699 -6.33398 -4 -11.001 -4s-8.83398 1.16699 -12.501 3.5s-5.5 5.83301 -5.5 10.5c0 5.33301 3 11 9 17l73 58
c-31.333 14.667 -58.666 28.667 -81.999 42c-3.33301 1.33301 -6.16602 3.83301 -8.49902 7.5s-3.5 7.16699 -3.5 10.5c0 6 3 10.167 9 12.5s11.333 2.5 16 0.5c19.333 -8.66699 36.666 -15.667 51.999 -21l16.5 -6.5l18.5 -7.5c-3.33301 28.667 -5.33301 59.667 -6 93
c0 6 1.5 11.167 4.5 15.5s7.16699 6.5 12.5 6.5c4.66699 0 8.5 -1.83301 11.5 -5.5s4.83301 -7.83398 5.5 -12.501l13 -92c18 12.667 44.333 29.334 79 50.001c2.66699 2.66699 6.33398 4 11.001 4s8.83398 -1.16699 12.501 -3.5s5.5 -5.83301 5.5 -10.5
c0 -5.33301 -3 -11 -9 -17l-73 -58c31.333 -14.667 58.666 -28.667 81.999 -42c3.33301 -1.33301 6.16602 -3.83301 8.49902 -7.5s3.5 -7.16699 3.5 -10.5c0 -6 -3 -10.167 -9 -12.5s-11.333 -2.5 -16 -0.5c-19.333 8.66699 -36.666 15.667 -51.999 21l-16.5 6.5l-18.5 7.5
c3.33301 -28.667 5.33301 -59.667 6 -93c0 -6 -1.5 -11.167 -4.5 -15.5s-7.16699 -6.5 -12.5 -6.5c-4 0 -7.66699 1.83301 -11 5.5z" />
    <glyph glyph-name="plus" unicode="+" horiz-adv-x="590" 
d="M274 -3.5c-2.66699 3 -4 6.16895 -4 9.50195v211c0 3.33301 -1.33301 5 -4 5h-202c-3.33301 0 -6.5 1.16699 -9.5 3.5s-4.5 5.16602 -4.5 8.49902c0 7.33301 2 15.5 6 24.5s10 13.5 18 13.5h189c2.66699 0 4.5 0.5 5.5 1.5s1.5 3.16699 1.5 6.5v171
c0 9.33301 6 16.833 18 22.5s21.333 8.5 28 8.5c3.33301 0 6.5 -1.33301 9.5 -4s4.5 -5.66699 4.5 -9v-191c0 -4 0.666992 -6 2 -6h205c3.33301 0 6.33301 -1 9 -3s4 -4.33301 4 -7c0 -9.33301 -3 -18.333 -9 -27s-13.333 -13 -22 -13h-185c-2.66699 0 -4 -1.33301 -4 -4
v-202c0 -8.66699 -5.66699 -14.834 -17 -18.501s-21.666 -5.5 -30.999 -5.5c-2.66699 0 -5.33398 1.5 -8.00098 4.5z" />
    <glyph glyph-name="comma" unicode="," horiz-adv-x="230" 
d="M24.5 -144c-3 2 -4.5 4.66699 -4.5 8c0 6 4.66699 10 14 12c26 5.33301 48.5 16.833 67.5 34.5s28.5 42.5 28.5 74.5c0 8.66699 -4 18 -12 28s-17 15.333 -27 16c-14.667 1.33301 -26.167 5.83301 -34.5 13.5s-12.5 17.167 -12.5 28.5c0 13.333 5.5 24.333 16.5 33
s23.833 13 38.5 13c24 0 43.833 -9.16699 59.5 -27.5s23.5 -41.5 23.5 -69.5c0 -31.333 -8 -59.833 -24 -85.5s-35.5 -45.667 -58.5 -60s-43.5 -21.5 -61.5 -21.5c-6 0 -10.5 1 -13.5 3z" />
    <glyph glyph-name="hyphen" unicode="-" horiz-adv-x="274" 
d="M29 176c0 12 1.49902 23.832 4.49902 35.499s6.83301 17.834 11.5 18.501c85.333 12 149.333 20.333 192 25c5.33301 0 8 -2 8 -6c0 -14.667 -1.66699 -27.167 -5 -37.5s-8.66602 -15.833 -15.999 -16.5l-26 -4c-68.667 -10.667 -123 -17.667 -163 -21c-4 0 -6 2 -6 6z
" />
    <glyph glyph-name="period" unicode="." horiz-adv-x="230" 
d="M76.5 2.5c-11 11 -16.5 23.833 -16.5 38.5c0 15.333 5.5 28.333 16.5 39s23.833 16 38.5 16c15.333 0 28.333 -5.33301 39 -16s16 -23.667 16 -39c0 -14.667 -5.33301 -27.5 -16 -38.5s-23.667 -16.5 -39 -16.5c-14.667 0 -27.5 5.5 -38.5 16.5z" />
    <glyph glyph-name="slash" unicode="/" horiz-adv-x="399" 
d="M22.5 -57.5c-3 3 -3.49902 6.5 -1.49902 10.5l297 695c3.33301 6.66699 8.16602 11.167 14.499 13.5s14.5 3.5 24.5 3.5c6 0 10.167 -1.66699 12.5 -5s2.5 -7.33301 0.5 -12l-297 -695c-2.66699 -6 -7 -10 -13 -12s-13.667 -3 -23 -3c-6.66699 0 -11.5 1.5 -14.5 4.5z
" />
    <glyph glyph-name="zero" unicode="0" horiz-adv-x="480" 
d="M135.5 32.5c-30.333 31 -53 70.668 -68 119.001s-22.5 98.5 -22.5 150.5c0 54 7.5 106 22.5 156s38.333 91.167 70 123.5s70.834 48.5 117.501 48.5c42.667 0 79.167 -15.5 109.5 -46.5s53 -70.5 68 -118.5s22.5 -97.667 22.5 -149c0 -53.333 -7.5 -105.333 -22.5 -156
s-38.333 -92.334 -70 -125.001s-70.834 -49 -117.501 -49c-42.667 0 -79.167 15.5 -109.5 46.5zM345.5 93.501c18.333 54.333 27.502 122.5 27.502 204.5c0 52 -5.33301 101.167 -16 147.5s-26.334 84 -47.001 113s-45.334 43.5 -74.001 43.5
c-37.333 0 -64.666 -26.333 -81.999 -79s-26 -120.334 -26 -203.001c0 -52 5.16699 -101.667 15.5 -149s25.5 -85.666 45.5 -114.999s44.333 -44 73 -44c37.333 0 65.166 27.167 83.499 81.5z" />
    <glyph glyph-name="one" unicode="1" horiz-adv-x="480" 
d="M96 0.5c-2.66699 2.33301 -3.99902 5.16699 -3.99902 8.5c0 2.66699 1.5 5.16699 4.5 7.5s6.5 4.16602 10.5 5.49902c30.667 7.33301 53 13.833 67 19.5s24.667 13.5 32 23.5s11 24.667 11 44v382c0 17.333 -7.33301 29.166 -22 35.499s-35.334 10.5 -62.001 12.5
c-7.33301 0.666992 -13.5 2.33398 -18.5 5.00098s-7.5 6.66699 -7.5 12c0 4.66699 2.33301 8.5 7 11.5s10.667 5.16699 18 6.5c36.667 5.33301 65.667 11.833 87 19.5s42.333 21.834 63 42.501c0.666992 0.666992 2.33398 1 5.00098 1c3.33301 0 6.33301 -0.833008 9 -2.5
s3.66699 -3.83398 3 -6.50098c-2.66699 -18 -4 -41.667 -4 -71v-460c0 -16.667 3 -29.167 9 -37.5s15.5 -14.833 28.5 -19.5s35.833 -11 68.5 -19c4.66699 -1.33301 8.66699 -3.16602 12 -5.49902s5 -4.83301 5 -7.5c0 -3.33301 -1.33301 -6 -4 -8s-6 -3 -10 -3
c-27.333 0 -52.666 1 -75.999 3c-30.667 1.33301 -54.334 2 -71.001 2c-26 0 -51 -1 -75 -3c-32 -1.33301 -57 -2 -75 -2c-4.66699 0 -8.33398 1.16699 -11.001 3.5z" />
    <glyph glyph-name="two" unicode="2" horiz-adv-x="480" 
d="M379 -1c-37.333 2.66699 -69 4.00293 -95 4.00293c7.33301 0 -46 -1 -160 -3l-72 -2c-2.66699 0 -6.66699 2.16699 -12 6.5s-8 7.83301 -8 10.5c0 3.33301 1.16699 6.16602 3.5 8.49902l4.5 4.5l171 177c35.333 36 63.5 75.667 84.5 119s31.5 86 31.5 128
c0 34.667 -10.333 62.334 -31 83.001s-46 31 -76 31c-26.667 0 -51.834 -7.33301 -75.501 -22s-42.5 -34.334 -56.5 -59.001c-2 -4 -4.66699 -7.33301 -8 -10s-6.33301 -4 -9 -4s-5.83398 3 -9.50098 9s-5.5 13 -5.5 21c0 11.333 9 27.666 27 48.999s41.833 40 71.5 56
s61.834 24 96.501 24c49.333 0 88.333 -15.167 117 -45.5s43 -70.166 43 -119.499c0 -26.667 -6.83301 -56 -20.5 -88s-31.167 -61 -52.5 -87c-12.667 -14.667 -35.5 -39 -68.5 -73l-71.5 -74c-46.667 -46.667 -70 -70.667 -70 -72c0 -2 1.33301 -3.5 4 -4.5
s6 -1.83301 10 -2.5c22 -2 51.333 -3 88 -3c40 0 78 1 114 3c29.333 1.33301 49.5 4.66602 60.5 9.99902s22.5 17.666 34.5 36.999c9.33301 15.333 17.666 23 24.999 23c4.66699 0 7 -4 7 -12c0 -3.33301 -2.66699 -12 -8 -26c-11.333 -34.667 -18.666 -59.667 -21.999 -75
c-3.33301 -16 -10.666 -24 -21.999 -24z" />
    <glyph glyph-name="three" unicode="3" horiz-adv-x="480" 
d="M112.5 -30.5c-17.667 5 -32.4961 10.833 -44.4961 17.5s-18 12.667 -18 18c0 7.33301 5.5 16.833 16.5 28.5s20.167 17.5 27.5 17.5c6 0 11.5 -1.33301 16.5 -4s9.66699 -5.66699 14 -9s7.16602 -5.66602 8.49902 -6.99902c10.667 -9.33301 21.667 -16.833 33 -22.5
s25.333 -8.5 42 -8.5c24 0 47.333 6.5 70 19.5s41 30.667 55 53s21 46.833 21 73.5c0 42 -10.333 78.833 -31 110.5s-49 47.5 -85 47.5c-25.333 0 -47 -5 -65 -15c-1.33301 -0.666992 -3 -1 -5 -1c-3.33301 0 -6.33301 1 -9 3s-3.66699 4.33301 -3 7
c4.66699 15.333 14.667 26.666 30 33.999c27.333 13.333 55.166 31.5 83.499 54.5s42.5 49.5 42.5 79.5c0 28 -9 52.333 -27 73s-40.333 31 -67 31c-32.667 0 -57.5 -6.83301 -74.5 -20.5s-32.167 -30.834 -45.5 -51.501c-2.66699 -4.66699 -5.16699 -8.66699 -7.5 -12
s-4.5 -5 -6.5 -5c-2.66699 0 -6 2 -10 6s-6 8.33301 -6 13c0 14 7.33301 31.333 22 52s36.5 38.834 65.5 54.501s64.167 23.5 105.5 23.5c22 0 43 -4.83301 63 -14.5s36.167 -23.167 48.5 -40.5s18.5 -37 18.5 -59c0 -26.667 -8.33301 -53 -25 -79
s-43.334 -49.667 -80.001 -71c-2 -1.33301 -3 -2.66602 -3 -3.99902s1.33301 -2 4 -2c28 0 53.5 -7.16699 76.5 -21.5s41.333 -33.5 55 -57.5s20.5 -50 20.5 -78c0 -48 -13.333 -90.333 -40 -127s-61.5 -64.834 -104.5 -84.501s-87.5 -29.5 -133.5 -29.5
c-14.667 0 -30.834 2.5 -48.501 7.5z" />
    <glyph glyph-name="four" unicode="4" horiz-adv-x="480" 
d="M198 0.5c-4 2.33301 -6.00391 5.49707 -6.00391 9.49707c0 3.33301 1.83301 6 5.5 8s7.83398 3.33301 12.501 4c29.333 4 49.5 10.5 60.5 19.5s16.5 21.833 16.5 38.5v93c0 2.66699 -2 4.83398 -6 6.50098s-7 2.5 -9 2.5c-37.333 0 -75 -1 -113 -3
c-29.333 -1.33301 -72.666 -2.66602 -129.999 -3.99902c-2.66699 0 -5 1.16699 -7 3.5s-3 4.5 -3 6.5c0 1.33301 0.333008 2.33301 1 3l23 28c4 4 9.33301 10.333 16 19l264 379c12.667 18.667 22.667 28 30 28h21c1.33301 0 2 -1 2 -3s-0.5 -4.16699 -1.5 -6.5
s-1.83301 -3.83301 -2.5 -4.5l-270 -388c-1.33301 -2 -2.16602 -4 -2.49902 -6s0.5 -3 2.5 -3h173c2.66699 0 5.33398 0.833008 8.00098 2.5s4 3.5 4 5.5v155c0 7.33301 0.5 12.333 1.5 15s3.5 5 7.5 7c8.66699 4.66699 18.334 8 29.001 10s19.667 3 27 3
c6.66699 0 10.834 -4.5 12.501 -13.5s2.5 -25.833 2.5 -50.5v-129c0 -4 1.66699 -6 5 -6c10 -0.666992 23.333 -1 40 -1c10 0 29.667 0.666992 59 2c2.66699 0 5.16699 -0.833008 7.5 -2.5s3.5 -3.5 3.5 -5.5c0 -7.33301 -2.83301 -15.5 -8.5 -24.5
s-9.83398 -13.5 -12.501 -13.5l-49 1c-10 0 -20.333 -0.666992 -31 -2c-2.66699 -0.666992 -5.33398 -1.66699 -8.00098 -3s-4.33398 -2.33301 -5.00098 -3v-94c0 -19.333 4.16699 -32.666 12.5 -39.999s26.5 -14.666 54.5 -21.999
c4.66699 -1.33301 8.83398 -3.33301 12.501 -6s5.5 -5.33398 5.5 -8.00098s-1.5 -5.16699 -4.5 -7.5s-6.5 -3.5 -10.5 -3.5c-26 0 -46.667 1 -62 3c-20 1.33301 -37 2 -51 2c-16 0 -34.667 -0.666992 -56 -2c-16 -2 -35.667 -3 -59 -3c-4 0 -8 1.16699 -12 3.5z" />
    <glyph glyph-name="five" unicode="5" horiz-adv-x="480" 
d="M83.5 -35c-7.66699 2 -11.502 4.99805 -11.502 8.99805c0 4.66699 4.33301 9 13 13s16.334 6 23.001 6c50 0 92.5 9.16699 127.5 27.5s61.333 41.833 79 70.5s26.5 58 26.5 88c0 39.333 -18.167 72.166 -54.5 98.499s-98.166 50.833 -185.499 73.5
c-8.66699 7.33301 -14.834 14.5 -18.501 21.5s-5.5 15.167 -5.5 24.5c0 20 11 58.333 33 115l15 44c6.66699 19.333 20.334 31.333 41.001 36c63.333 16.667 132.333 28.334 207 35.001h2c4.66699 0 8 -1.66699 10 -5s1.66699 -7.33301 -1 -12l-17 -33
c-8.66699 -19.333 -21 -30 -37 -32l-77 -8c-43.333 -3.33301 -75 -6.66602 -95 -9.99902c-6.66699 -0.666992 -15.5 -11.667 -26.5 -33s-16.833 -36.666 -17.5 -45.999v-4c0 -7.33301 4.33301 -12.333 13 -15c81.333 -24 142 -46.333 182 -67c38 -20 66 -43.333 84 -70
s27 -59.667 27 -99c0 -36 -10.833 -70 -32.5 -102s-51.5 -59 -89.5 -81c-56.667 -32 -119.667 -48 -189 -48c-9.33301 0 -17.833 1 -25.5 3z" />
    <glyph glyph-name="six" unicode="6" horiz-adv-x="480" 
d="M152 8c-31.333 16 -56.6689 39.666 -76.002 70.999s-29 69.333 -29 114c0 64.667 12.667 120.667 38 168s53 86 83 116c32.667 33.333 71.667 65.333 117 96s95.333 53.334 150 68.001c1.33301 0.666992 3.33301 1 6 1c4 0 7.33301 -1 10 -3s3.33398 -3.66699 2.00098 -5
c-4 -7.33301 -12.667 -14 -26 -20c-45.333 -20 -84 -42.333 -116 -67s-60.667 -55 -86 -91c-22.667 -32.667 -43.667 -72.834 -63 -120.501s-29 -94.5 -29 -140.5c0.666992 -35.333 8.16699 -66.166 22.5 -92.499s32.666 -46.333 54.999 -60s44.833 -20.5 67.5 -20.5
c28.667 0 52.667 10.333 72 31s29 50.334 29 89.001c0 31.333 -8.66699 58.833 -26 82.5s-39 35.5 -65 35.5c-18 0 -33 -1 -45 -3s-23.667 -6 -35 -12c-4 -1.33301 -6.33301 -2 -7 -2c-2.66699 0 -4 1.33301 -4 4c0 2 1.33301 5 4 9c8 8.66699 17 16.667 27 24
c9.33301 7.33301 23.833 14.666 43.5 21.999s37.834 11 54.501 11c22.667 0 44.167 -5.33301 64.5 -16s36.5 -25.334 48.5 -44.001s18 -39.667 18 -63c0 -40 -10 -75.667 -30 -107s-46 -55.666 -78 -72.999s-64.333 -26 -97 -26c-35.333 0 -68.666 8 -99.999 24z" />
    <glyph glyph-name="seven" unicode="7" horiz-adv-x="480" 
d="M106 -6c0 2.66699 7.00391 16.3311 21.0039 40.998l283 506c1.33301 2.66699 2 4.33398 2 5.00098c0 2.66699 -4 4.33398 -12 5.00098h-256c-17.333 0 -31.833 -3.33301 -43.5 -10s-22.834 -18.667 -33.501 -36c-9.33301 -16.667 -17.333 -25 -24 -25
c-4.66699 0 -7 4.66699 -7 14c0 3.33301 0.666992 7.5 2 12.5s2 8.16699 2 9.5c5.33301 22.667 10.666 55.667 15.999 99c0.666992 7.33301 4 11 10 11c1.33301 0 10.166 -1.5 26.499 -4.5s35.5 -4.5 57.5 -4.5l99 -1c50 0 98.5 0.5 145.5 1.5s75.167 2.16699 84.5 3.5
c1.33301 0 2.66602 -1.5 3.99902 -4.5s2 -5.83301 2 -8.5c0 -8 -5.66699 -20.5 -17 -37.5s-18.333 -27.833 -21 -32.5l-301 -543c-10 -18 -16.333 -27 -19 -27c-14 0 -21 8.66699 -21 26z" />
    <glyph glyph-name="eight" unicode="8" horiz-adv-x="480" 
d="M155 6c-27.333 13.333 -49.166 31.6611 -65.499 54.9941s-24.5 50 -24.5 80c0 26.667 7 50.334 21 71.001s30 37.334 48 50.001s39.667 26 65 40c3.33301 2 5 3.66699 5 5s-2.66699 4 -8 8l-17 14c-23.333 20 -41.333 36.5 -54 49.5s-23.334 28.667 -32.001 47
s-13 39.5 -13 63.5c0 25.333 8.83301 48.833 26.5 70.5s40.667 38.834 69 51.501s57.166 19 86.499 19c26.667 0 52.334 -5.66699 77.001 -17s44.5 -27.166 59.5 -47.499s22.5 -43.5 22.5 -69.5c0 -21.333 -4.83301 -39.166 -14.5 -53.499s-22.5 -28.5 -38.5 -42.5
c-18 -15.333 -35.667 -29.333 -53 -42c-8.66699 -6 -13 -10.333 -13 -13c0 -2 2.66699 -4.66699 8 -8c44 -30.667 76.5 -58.334 97.5 -83.001s31.5 -54.667 31.5 -90c0 -33.333 -9.5 -63.666 -28.5 -90.999s-43.667 -48.666 -74 -63.999s-61.833 -23 -94.5 -23
c-30.667 0 -59.667 6.66699 -87 20zM332 418.995c8 22.667 11.999 50.667 11.999 84c0 29.333 -7.5 53.833 -22.5 73.5s-36.5 29.5 -64.5 29.5c-15.333 0 -30.833 -4.33301 -46.5 -13s-28.5 -20.5 -38.5 -35.5s-15 -31.167 -15 -48.5c0 -19.333 2.83301 -35.5 8.5 -48.5
s13.334 -24 23.001 -33s24.5 -20.833 44.5 -35.5c24 -18 37.667 -28.333 41 -31c6 -4.66699 10.667 -5.66699 14 -3c21.333 18 36 38.333 44 61zM329.499 46.9951c19.667 21.333 29.502 47 29.502 77c0 50 -39.333 102 -118 156c-8.66699 6.66699 -15.334 10 -20.001 10
c-2.66699 0 -6.66699 -2 -12 -6c-23.333 -18.667 -39.833 -37 -49.5 -55s-14.5 -42 -14.5 -72c0 -37.333 10.167 -70.333 30.5 -99s47.166 -43 80.499 -43c29.333 0 53.833 10.667 73.5 32z" />
    <glyph glyph-name="nine" unicode="9" horiz-adv-x="480" 
d="M53 -23c0 3.33301 1.33594 5.83301 4.00293 7.5s6 2.5 10 2.5c30 0 66.5 14.167 109.5 42.5s80.5 63.166 112.5 104.499s54.833 82 68.5 122s20.5 84.333 20.5 133c0 32 -6.66699 63.833 -20 95.5s-30.833 57.667 -52.5 78s-44.167 30.5 -67.5 30.5
c-20.667 0 -38.334 -5.66699 -53.001 -17s-25.834 -25.5 -33.501 -42.5s-11.5 -34.167 -11.5 -51.5c0 -20 4.83301 -39.667 14.5 -59s22.5 -35.166 38.5 -47.499s32.667 -18.5 50 -18.5c14 0 25.5 1.5 34.5 4.5s17.5 6.66699 25.5 11l20 10.5h1
c2.66699 0 4.66699 -1.33301 6 -4s1.33301 -5 0 -7c-6.66699 -12 -17.667 -23.667 -33 -35c-10 -7.33301 -23.667 -14.666 -41 -21.999s-34.333 -11 -51 -11c-23.333 0 -45.666 5.5 -66.999 16.5s-38.833 26.167 -52.5 45.5s-20.5 40.666 -20.5 63.999
c0 30.667 9 61.5 27 92.5s42.667 56.5 74 76.5s66.333 30 105 30c31.333 0 62 -11 92 -33s54.167 -50.833 72.5 -86.5s27.5 -72.167 27.5 -109.5c0 -59.333 -11.833 -113 -35.5 -161s-59.834 -98.667 -108.501 -152c-34 -37.333 -74.833 -66.333 -122.5 -87
s-90.834 -31 -129.501 -31c-9.33301 0 -14 2.66699 -14 8z" />
    <glyph glyph-name="colon" unicode=":" horiz-adv-x="248" 
d="M86.5 278.5c-11 11 -16.5 23.833 -16.5 38.5c0 15.333 5.5 28.333 16.5 39s23.833 16 38.5 16c15.333 0 28.333 -5.33301 39 -16s16 -23.667 16 -39c0 -14.667 -5.33301 -27.5 -16 -38.5s-23.667 -16.5 -39 -16.5c-14.667 0 -27.5 5.5 -38.5 16.5zM86.5 2.5
c-11 11 -16.5 23.833 -16.5 38.5c0 15.333 5.5 28.333 16.5 39s23.833 16 38.5 16c15.333 0 28.333 -5.33301 39 -16s16 -23.667 16 -39c0 -14.667 -5.33301 -27.5 -16 -38.5s-23.667 -16.5 -39 -16.5c-14.667 0 -27.5 5.5 -38.5 16.5z" />
    <glyph glyph-name="semicolon" unicode=";" horiz-adv-x="228" 
d="M66.5 279.5c-11 11 -16.5 23.833 -16.5 38.5c0 15.333 5.5 28.333 16.5 39s23.833 16 38.5 16c15.333 0 28.333 -5.33301 39 -16s16 -23.667 16 -39c0 -14.667 -5.33301 -27.5 -16 -38.5s-23.667 -16.5 -39 -16.5c-14.667 0 -27.5 5.5 -38.5 16.5zM24.5 -144
c-3 2 -4.5 4.66699 -4.5 8c0 6 4.66699 10 14 12c26 5.33301 48.5 16.833 67.5 34.5s28.5 42.5 28.5 74.5c0 8.66699 -4 18 -12 28s-17 15.333 -27 16c-14.667 1.33301 -26.167 5.83301 -34.5 13.5s-12.5 17.167 -12.5 28.5c0 13.333 5.5 24.333 16.5 33s23.833 13 38.5 13
c24 0 43.833 -9.16699 59.5 -27.5s23.5 -41.5 23.5 -69.5c0 -31.333 -8 -59.833 -24 -85.5s-35.5 -45.667 -58.5 -60s-43.5 -21.5 -61.5 -21.5c-6 0 -10.5 1 -13.5 3z" />
    <glyph glyph-name="less" unicode="&#x3c;" horiz-adv-x="560" 
d="M94 195c-27.333 12.667 -40.998 21.667 -40.998 27s3.16699 13.166 9.5 23.499s14.166 17.833 23.499 22.5l403 198c3.33301 2 6 3 8 3c6 0 9 -3.33301 9 -10c0 -7.33301 -2.83301 -16.5 -8.5 -27.5s-13.167 -18.833 -22.5 -23.5l-343 -174
c-1.33301 -0.666992 -1.83301 -1.5 -1.5 -2.5s1.16602 -1.83301 2.49902 -2.5l350 -174c8 -4 14 -11.167 18 -21.5s6 -19.166 6 -26.499s-3.66699 -11 -11 -11c-2 0 -5 0.666992 -9 2z" />
    <glyph glyph-name="equal" unicode="=" horiz-adv-x="566" 
d="M54.5 318c-3 2.66699 -4.5 5.33203 -4.5 7.99902c0 7.33301 2 15.5 6 24.5s10 13.5 18 13.5h428c3.33301 0 6.5 -1.16699 9.5 -3.5s4.5 -4.83301 4.5 -7.5c0 -7.33301 -3.5 -15.666 -10.5 -24.999s-14.167 -14 -21.5 -14h-420c-3.33301 0 -6.5 1.33301 -9.5 4z
M54.5 146.998c-3 2.66699 -4.5 5.33203 -4.5 7.99902c0 7.33301 2 15.5 6 24.5s10 13.5 18 13.5h428c3.33301 0 6.5 -1.16699 9.5 -3.5s4.5 -4.83301 4.5 -7.5c0 -9.33301 -3.33301 -18.166 -10 -26.499s-14 -12.5 -22 -12.5h-420c-3.33301 0 -6.5 1.33301 -9.5 4z" />
    <glyph glyph-name="greater" unicode="&#x3e;" horiz-adv-x="560" 
d="M466 270c27.333 -12.667 40.999 -21.667 40.999 -27s-3.16699 -13.166 -9.5 -23.499s-14.166 -17.833 -23.499 -22.5l-403 -198c-2.66699 -2 -5.33398 -3 -8.00098 -3c-6 0 -9 3.33301 -9 10c0 7.33301 2.83301 16.5 8.5 27.5s13.167 18.833 22.5 23.5l343 174
c1.33301 0.666992 1.83301 1.5 1.5 2.5s-1.16602 1.83301 -2.49902 2.5l-350 174c-8 4 -14 11.167 -18 21.5s-6 19.166 -6 26.499s3.66699 11 11 11c2 0 5 -0.666992 9 -2z" />
    <glyph glyph-name="question" unicode="?" horiz-adv-x="376" 
d="M124 189.5c-4.66699 5.66699 -7.99512 12.5 -9.99512 20.5l-6.5 20c-3 9.33301 -5.33301 19.5 -7 30.5s-2.5 23.167 -2.5 36.5c0 16 8 30.5 24 43.5s41.667 28.5 77 46.5c16 8 30.167 18.5 42.5 31.5s18.5 26.167 18.5 39.5c0 34 -8.66699 61.5 -26 82.5
s-42.333 31.833 -75 32.5c-6 0 -13.667 -0.666992 -23 -2s-17.333 -2 -24 -2c-10.667 0 -20.334 6 -29.001 18s-13 24.667 -13 38c0 9.33301 4.5 17.666 13.5 24.999s17.833 11 26.5 11c17.333 0 35.666 -4.33301 54.999 -13s37 -21 53 -37
c27.333 -27.333 49.666 -59.666 66.999 -96.999s26 -69.333 26 -96c0 -40.667 -14 -68.667 -42 -84c-32.667 -18 -61.334 -35 -86.001 -51c-12.667 -8 -21 -18.333 -25 -31s-6.33301 -28.667 -7 -48c0 -5.33301 -1.33301 -10.5 -4 -15.5s-6.33398 -7.5 -11.001 -7.5
c-3.33301 0 -7.33301 2.83301 -12 8.5zM107.505 3.5c-11.667 11.667 -17.5 25.834 -17.5 42.501s5.83301 30.834 17.5 42.501s25.834 17.5 42.501 17.5s30.834 -5.83301 42.501 -17.5s17.5 -25.834 17.5 -42.501s-5.83301 -30.834 -17.5 -42.501
s-25.834 -17.5 -42.501 -17.5s-30.834 5.83301 -42.501 17.5z" />
    <glyph glyph-name="at" unicode="@" horiz-adv-x="749" 
d="M217 -91c-50.667 26.667 -91.165 63.668 -121.498 111.001s-45.5 101 -45.5 161c0 68.667 16.667 127.5 50 176.5s77.666 86.167 132.999 111.5s115.666 38 180.999 38c49.333 0 95.833 -12.333 139.5 -37s78.834 -57.834 105.501 -99.501s40 -86.834 40 -135.501
c0 -37.333 -9.66699 -70.333 -29 -99s-44.833 -50.667 -76.5 -66s-65.5 -23 -101.5 -23c-12 0 -21.167 2.5 -27.5 7.5s-11.833 11.167 -16.5 18.5s-8 11 -10 11s-9.5 -3.5 -22.5 -10.5s-27.167 -13.167 -42.5 -18.5s-32.333 -8 -51 -8c-34 0 -62.167 9.66699 -84.5 29
s-33.5 46 -33.5 80c0 39.333 9.83301 74 29.5 104s45.667 53.333 78 70s66.833 25 103.5 25c10 0 21.833 -0.833008 35.5 -2.5s23.5 -3.5 29.5 -5.5c12 -4 19.667 -6 23 -6s7.5 3.16699 12.5 9.5s9.16699 9.5 12.5 9.5s7.5 -0.833008 12.5 -2.5s6.83301 -3.5 5.5 -5.5
c-4 -10.667 -8.16699 -24 -12.5 -40s-7.5 -29.333 -9.5 -40l-21 -132c-0.666992 -3.33301 -1.33398 -7.16602 -2.00098 -11.499s-1 -9.5 -1 -15.5c0 -19.333 6 -29 18 -29c23.333 0 45.333 5.66699 66 17s37.167 27.333 49.5 48s18.5 44.334 18.5 71.001
c0 45.333 -11.833 86.833 -35.5 124.5s-55.167 67.5 -94.5 89.5s-82 33 -128 33c-53.333 0 -102.666 -11.333 -147.999 -34s-81.5 -55 -108.5 -97s-40.5 -90.333 -40.5 -145c0 -52 13.5 -99.5 40.5 -142.5s63.167 -77 108.5 -102s94.333 -37.5 147 -37.5
c32 0 68.167 7.5 108.5 22.5s73.166 33.167 98.499 54.5c8 6.66699 14 10 18 10c9.33301 0 14 -4.33301 14 -13s-14 -22.334 -42 -41.001s-61.333 -35.5 -100 -50.5s-74.667 -22.5 -108 -22.5c-59.333 0 -114.333 13.333 -165 40zM388.502 86.501
c9 3.66699 18.833 9.16602 29.5 16.499c6.66699 4.66699 12.167 10.334 16.5 17.001s7.83301 17.334 10.5 32.001l19 103c0.666992 2.66699 1 6.66699 1 12c0 18 -6.5 32.167 -19.5 42.5s-30.5 15.5 -52.5 15.5c-20 0 -39 -5.83301 -57 -17.5s-32.667 -28.834 -44 -51.501
s-17 -49.667 -17 -81c0 -32.667 8.16699 -56.5 24.5 -71.5s35.833 -22.5 58.5 -22.5c11.333 0 21.5 1.83301 30.5 5.5z" />
    <glyph glyph-name="A" unicode="A" horiz-adv-x="692" 
d="M6 -1.5c-5.33301 2.33301 -8 5.49902 -8 9.49902c0 8.66699 11 16.334 33 23.001c19.333 6 36 14.5 50 25.5s26 28.167 36 51.5c35.333 81.333 66.166 155.166 92.499 221.499l94.5 248.5c7.33301 20.667 12 40 14 58c2 0.666992 6.83301 2.16699 14.5 4.5
s14.834 5.83301 21.501 10.5c5.33301 4 9.5 10 12.5 18s5.16699 13.333 6.5 16c0.666992 0.666992 1.5 0.833984 2.5 0.500977s1.83301 -0.833008 2.5 -1.5c1.33301 -3.33301 2.5 -7 3.5 -11s2.16699 -7.66699 3.5 -11l178 -534c12.667 -36.667 26.667 -61.5 42 -74.5
s35 -21.5 59 -25.5c10.667 -2 18.834 -5.16699 24.501 -9.5s8.5 -8.83301 8.5 -13.5c0 -6.66699 -9.66699 -10 -29 -10l-54 2c-37.333 2.66699 -65.666 4 -84.999 4l-105 -1c-19.333 0 -29 4 -29 12c0 4 3.16699 7.83301 9.5 11.5s14.166 6.16699 23.499 7.5
c40.667 6.66699 61 21.667 61 45c0 21.333 -13 75.333 -39 162c-1.33301 4.66699 -3.83301 7.66699 -7.5 9s-10.167 2 -19.5 2h-189c-7.33301 0 -13 -6 -17 -18c-7.33301 -21.333 -16 -49.166 -26 -83.499s-15 -54.5 -15 -60.5c0 -14 5.5 -26 16.5 -36s24.833 -17 41.5 -21
c12 -3.33301 20.5 -6.33301 25.5 -9s7.5 -6.33398 7.5 -11.001c0 -7.33301 -9.66699 -11 -29 -11c-12 0 -22 0.333008 -30 1l-61 1c-11.333 0 -23.833 -0.5 -37.5 -1.5s-23.834 -1.5 -30.501 -1.5c-18.667 -2 -36 -3 -52 -3c-8.66699 0 -15.667 1.16699 -21 3.5z
M416 281.999c4 0 7.33301 0.333008 10 1s4 2 4 4l-2 10l-78 244c-4 12 -7 18 -9 18c-1.33301 0 -4 -5.66699 -8 -17l-91 -245l-2 -8c0 -3.33301 1.5 -5.33301 4.5 -6s8.5 -1 16.5 -1h155z" />
    <glyph glyph-name="B" unicode="B" horiz-adv-x="587" 
d="M19 6c0 4.66699 2.66699 8.33496 8 11.002s13.666 5 24.999 7c26.667 4.66699 46.334 12.667 59.001 24s19 28.333 19 51v450c0 24 -5.16699 41.667 -15.5 53s-27.5 18 -51.5 20c-10.667 0.666992 -18.834 3 -24.501 7s-8.5 8.33301 -8.5 13c0 7.33301 9.66699 11 29 11
c30 0 50 -0.333008 60 -1h44c10 0 24.333 0.666992 43 2c34 2 56.667 3 68 3c80 0 138.667 -11.5 176 -34.5s56 -61.167 56 -114.5c0 -20.667 -3.5 -39.667 -10.5 -57s-14.833 -30.333 -23.5 -39c-10.667 -10.667 -20.5 -18.834 -29.5 -24.501s-21.5 -11.834 -37.5 -18.501
c-2.66699 -1.33301 -4 -3.16602 -4 -5.49902s1.33301 -3.83301 4 -4.5c28 -9.33301 51.5 -19.333 70.5 -30s35.667 -26.834 50 -48.501s21.5 -50.5 21.5 -86.5c0 -34 -5.33301 -61.833 -16 -83.5s-23.167 -38 -37.5 -49s-31.166 -21.5 -50.499 -31.5
c-45.333 -22.667 -102 -34 -170 -34l-30 1c-18 2 -39.667 3 -65 3c-16.667 -0 -37 -0.666992 -61 -2c-18.667 -2 -41.667 -3 -69 -3c-19.333 0 -29 3.66699 -29 11zM375 400.001c10.667 6 20.833 17 30.5 33s14.5 36.667 14.5 62c0 36 -10.5 67 -31.5 93
s-59.167 39 -114.5 39c-26 0 -43.5 -3.5 -52.5 -10.5s-13.5 -18.5 -13.5 -34.5v-174c0 -24.667 15.333 -37 46 -37c46 0 86.333 9.66699 121 29zM368.999 57.001c25.333 13.333 45.667 31.667 61 55s23 49 23 77c0 34 -7.5 61.333 -22.5 82s-32.167 36.334 -51.5 47.001
c-30 16.667 -68 25 -114 25c-19.333 0 -33.666 -3.83301 -42.999 -11.5s-14 -15.834 -14 -24.501v-199c0 -26.667 6.33301 -45.167 19 -55.5s32.667 -15.5 60 -15.5c29.333 0 56.666 6.66699 81.999 20z" />
    <glyph glyph-name="C" unicode="C" horiz-adv-x="710" 
d="M230 27.5c-55.333 28.333 -99.8271 68.167 -133.494 119.5s-50.5 110 -50.5 176c0 63.333 17.667 120.833 53 172.5s82.666 92.5 141.999 122.5s123 45 191 45c34.667 0 62.834 -1.83301 84.501 -5.5s52.834 -10.5 93.501 -20.5
c9.33301 -2.66699 16.166 -6.66699 20.499 -12s7.16602 -12.666 8.49902 -21.999c5.33301 -52 8.33301 -90.333 9 -115c0.666992 -4 -0.833008 -7.5 -4.5 -10.5s-7.83398 -4.5 -12.501 -4.5c-8.66699 0 -14.334 4.66699 -17.001 14c-7.33301 28.667 -15.5 51.5 -24.5 68.5
s-21.5 31.167 -37.5 42.5c-16.667 10.667 -36.834 19 -60.501 25s-49.167 9 -76.5 9c-50.667 0 -96.334 -13.333 -137.001 -40s-72.667 -61.834 -96 -105.501s-35 -90.167 -35 -139.5c0 -55.333 11.667 -108.5 35 -159.5s55.833 -92.333 97.5 -124s89.167 -47.5 142.5 -47.5
c46 0 84.833 10.5 116.5 31.5s59.167 52.167 82.5 93.5c2 4 5 7.16699 9 9.5s7.66699 3.5 11 3.5c4 0 7.33301 -1.33301 10 -4s4 -6.66699 4 -12c0 -8 -3 -22.5 -9 -43.5s-12 -38.833 -18 -53.5c-5.33301 -9.33301 -9.33301 -15.333 -12 -18s-9.33398 -5.66699 -20.001 -9
c-23.333 -9.33301 -52 -16.5 -86 -21.5s-68.333 -7.5 -103 -7.5c-62.667 0 -121.667 14.167 -177 42.5z" />
    <glyph glyph-name="D" unicode="D" horiz-adv-x="754" 
d="M325 -5c-73.333 3.33301 -127.333 5.00391 -162 5.00391c-11.333 0 -26.333 -0.666992 -45 -2c-14.667 -2 -34.667 -3 -60 -3c-19.333 0 -29 4.33301 -29 13c0 5.33301 2 8.66602 6 9.99902s13 3.33301 27 6c25.333 4.66699 42.833 12.334 52.5 23.001s14.5 28 14.5 52
v450c0 23.333 -4.83301 40.166 -14.5 50.499s-27.167 17.833 -52.5 22.5c-12.667 2 -21.334 4.16699 -26.001 6.5s-7 6.16602 -7 11.499c0 8.66699 9.66699 13 29 13l57 -1c10 -0.666992 28 -1 54 -1c27.333 0 61.666 1.66699 102.999 5
c14 0.666992 26.833 1.33398 38.5 2.00098s21.5 1 29.5 1c86.667 0 158.334 -13.833 215.001 -41.5s98.167 -65.334 124.5 -113.001s39.5 -101.834 39.5 -162.501c0 -62.667 -15.667 -120.834 -47 -174.501s-73.666 -96.167 -126.999 -127.5s-111.333 -47 -174 -47z
M496.5 66.0039c40.333 25.333 71.668 60.501 94.001 105.501s33.5 96.167 33.5 153.5c0 61.333 -13.333 115 -40 161s-61.5 81.167 -104.5 105.5s-87.833 36.5 -134.5 36.5c-35.333 0 -61.833 -1 -79.5 -3s-31.5 -7.33301 -41.5 -16s-15 -22.667 -15 -42v-446
c0 -36.667 13.5 -61.334 40.5 -74.001s63.5 -19 109.5 -19c51.333 0 97.166 12.667 137.499 38z" />
    <glyph glyph-name="E" unicode="E" horiz-adv-x="564" 
d="M37 6c0 4.66699 2.66992 8.33301 8.00293 11s13.666 5 24.999 7c26 4.66699 44.833 12.5 56.5 23.5s17.5 28.167 17.5 51.5v450c0 23.333 -4.83301 40.166 -14.5 50.499s-27.167 17.833 -52.5 22.5c-22 4 -33 10.667 -33 20c0 7.33301 9.66699 11 29 11
c25.333 0 56 -0.666992 92 -2l85 -1l137 1l85 2c11.333 0 17.333 -3 18 -9c1.33301 -5.33301 4.16602 -20 8.49902 -44s6.5 -43.667 6.5 -59c0 -10 -4.66699 -15 -14 -15c-3.33301 0 -5.66602 0.666992 -6.99902 2s-2.66602 4 -3.99902 8c-1.33301 3.33301 -4 12 -8 26
s-8.66699 23.667 -14 29c-16 18 -38.333 27 -67 27h-131c-6.66699 0 -14.334 -3.16699 -23.001 -9.5s-13 -13.833 -13 -22.5v-212c0 -6 1.83301 -11.167 5.5 -15.5s7.83398 -6.5 12.501 -6.5h99c18.667 0 31.667 3.33301 39 10s13.666 19.667 18.999 39
c4 14.667 10 22 18 22c2.66699 0 5.5 -1.5 8.5 -4.5s4.5 -6.83301 4.5 -11.5l-1 -26l-2 -44l1 -53l1 -24c0 -11.333 -3 -17 -9 -17c-10 0 -17.667 10.667 -23 32c-4 16 -9.5 27.5 -16.5 34.5s-16.833 10.5 -29.5 10.5h-93c-12.667 0 -21.5 -1.66699 -26.5 -5
s-7.5 -10.333 -7.5 -21v-192c0 -24.667 5.16699 -42 15.5 -52s27.166 -15 50.499 -15h74c22 0 40.167 1.33301 54.5 4s26.5 7 36.5 13c10 6.66699 19.167 15.834 27.5 27.501s18.166 28.167 29.499 49.5c4.66699 8.66699 9.33398 13 14.001 13c8.66699 0 13 -4.66699 13 -14
c0 -8.66699 -3.66699 -26.834 -11 -54.501s-14 -48.167 -20 -61.5c-0.666992 -1.33301 -1.66699 -3.66602 -3 -6.99902s-2.83301 -5.83301 -4.5 -7.5s-3.83398 -2.5 -6.50098 -2.5c-13.333 0 -72 1 -176 3c-46 2 -91.667 3 -137 3c-18.667 0 -36 -1 -52 -3
c-34 -2 -55 -3 -63 -3c-19.333 0 -29 3.66699 -29 11z" />
    <glyph glyph-name="F" unicode="F" horiz-adv-x="512" 
d="M30 6c0 4.66699 2.6709 8.33398 8.00391 11.001s13.666 5 24.999 7c25.333 4.66699 42.833 12.5 52.5 23.5s14.5 28.5 14.5 52.5v422c0 32 -4.16699 55.667 -12.5 71s-24.5 25 -48.5 29c-22 4 -33 10.667 -33 20c0 7.33301 9.66699 11 29 11
c24.667 0 54.334 -0.666992 89.001 -2l83 -1h126c18.667 0 40 2 64 6c17.333 2.66699 29 4 35 4c11.333 0 17.333 -3 18 -9c1.33301 -10 2.5 -26.333 3.5 -49s1.5 -40 1.5 -52c0 -14 -3 -21 -9 -21c-3.33301 0 -6.33301 1.16699 -9 3.5s-4.66699 5.16602 -6 8.49902
c-6 22.667 -13.667 39 -23 49c-16 18 -38.333 27 -67 27h-127c-14 0 -23 -4.16699 -27 -12.5s-6.33301 -20.833 -7 -37.5s-1 -50 -1 -100c0 -47.333 0.333008 -79 1 -95c0 -14.667 3.33301 -22 10 -22c18 0 42.333 0.666992 73 2l43 1c14 0 26.333 3.83301 37 11.5
s18.667 17.5 24 29.5c1.33301 2.66699 4.16602 6.16699 8.49902 10.5s7.5 6.5 9.5 6.5c2.66699 0 5.66699 -1.66699 9 -5s4.66602 -7 3.99902 -11c-2 -22.667 -3 -41 -3 -55c0 -16 1 -38.667 3 -68c0 -11.333 -3 -17 -9 -17s-11 2.5 -15 7.5s-6.66699 10.167 -8 15.5
c-4.66699 14 -11.334 24.167 -20.001 30.5s-17.667 9.5 -27 9.5l-50 1c-29.333 0 -51 -0.666992 -65 -2c-16 -1.33301 -24 -9.66602 -24 -24.999c0 -83.333 1 -147 3 -191c1.33301 -22.667 6.66602 -40.167 15.999 -52.5s26 -20.5 50 -24.5
c11.333 -2 19.666 -4.33301 24.999 -7s8 -6.33398 8 -11.001c0 -7.33301 -9.66699 -11 -29 -11c-21.333 0 -40.666 1.33301 -57.999 4c-12 2 -25.333 3 -40 3c-11.333 0 -22.833 -0.5 -34.5 -1.5s-20.167 -1.5 -25.5 -1.5c-25.333 -2.66699 -47.333 -4 -66 -4
c-19.333 0 -29 3.66699 -29 11z" />
    <glyph glyph-name="G" unicode="G" horiz-adv-x="729" 
d="M220 29c-53.333 28.667 -95.834 67.833 -127.501 117.5s-47.5 104.5 -47.5 164.5c0 64.667 16.667 123.834 50 177.501s78.333 96.167 135 127.5s117.667 47 183 47c23.333 0 59.166 -3.83301 107.499 -11.5s79.166 -14.834 92.499 -21.501
c3.33301 -1.33301 5.5 -2.83301 6.5 -4.5s1.83301 -4.16699 2.5 -7.5c6.66699 -52 10 -87.333 10 -106c0 -5.33301 -1.5 -10 -4.5 -14s-6.5 -6 -10.5 -6c-6 0 -10.667 2.33301 -14 7s-6.33301 11.334 -9 20.001c-7.33301 20 -17.666 37.667 -30.999 53
c-9.33301 12 -27.833 23.833 -55.5 35.5s-62.167 17.5 -103.5 17.5c-50 0 -94.833 -13.833 -134.5 -41.5s-70.5 -64.667 -92.5 -111s-33 -95.833 -33 -148.5c0 -60.667 12.333 -113.834 37 -159.501s57 -80.667 97 -105s82.667 -36.5 128 -36.5
c33.333 0 59.666 3.83301 78.999 11.5s33.666 16.167 42.999 25.5c8.66699 8.66699 15.834 19.667 21.501 33s8.5 28 8.5 44c0 12 0.333008 21.333 1 28l1 30c0 16 -1.66699 26 -5 30c-7.33301 10 -22 17.667 -44 23s-40 8 -54 8c-3.33301 0 -7.5 1.66699 -12.5 5
s-7.5 7.33301 -7.5 12s2.5 8.66699 7.5 12s9.16699 5 12.5 5c15.333 0 35 -0.666992 59 -2c25.333 -1.33301 47.666 -2 66.999 -2c12 0 26.667 0.666992 44 2s32.333 2 45 2c4 0 8.5 -1.33301 13.5 -4s7.5 -6.66699 7.5 -12c0 -4 -2.66699 -7.83301 -8 -11.5
s-9.66602 -5.83398 -12.999 -6.50098c-14 -4 -24 -9.66699 -30 -17s-10 -18 -12 -32c-3.33301 -24 -5 -49 -5 -75v-27c0 -3.33301 0.833008 -6.5 2.5 -9.5s2.83398 -5.16699 3.50098 -6.5c1.33301 -2 3.83301 -4.83301 7.5 -8.5s5.5 -6.5 5.5 -8.5
c0 -11.333 -4.66699 -17.666 -14 -18.999c-4.66699 -0.666992 -13.667 -4.66699 -27 -12c-32.667 -15.333 -65.667 -28.333 -99 -39s-70.666 -16 -111.999 -16c-61.333 0 -118.666 14.333 -171.999 43z" />
    <glyph glyph-name="H" unicode="H" horiz-adv-x="810" 
d="M45 -1.5c-5.33301 2.33301 -8.00391 5.50195 -8.00391 9.50195s2.33301 7.16699 7 9.5s13 4.5 25 6.5c24.667 4.66699 41 12.167 49 22.5s12 27.833 12 52.5v452c0 17.333 -1 30.166 -3 38.499s-6.66699 15.166 -14 20.499s-19.333 9.33301 -36 12
c-11.333 2 -19.666 4.33301 -24.999 7s-8 6.33398 -8 11.001c0 8.66699 9.66699 13 29 13c20 0 40 -0.666992 60 -2l43 -1l45 1c21.333 1.33301 41.666 2 60.999 2s29 -4.33301 29 -13c0 -4.66699 -2.66699 -8.33398 -8 -11.001s-13.666 -5 -24.999 -7
c-24.667 -4.66699 -42.167 -12.667 -52.5 -24s-15.5 -27 -15.5 -47v-197c0 -6 4.66699 -9 14 -9h371c4.66699 0 7 4 7 12v195c0 19.333 -5 34.833 -15 46.5s-27 19.5 -51 23.5c-11.333 2 -19.666 4.33301 -24.999 7s-8 6.33398 -8 11.001c0 4 2.66699 7.16699 8 9.5
s12.333 3.5 21 3.5c18.667 0 40 -0.666992 64 -2l52 -1l35 1c17.333 1.33301 36 2 56 2c19.333 0 29 -4.33301 29 -13c0 -4.66699 -2.66699 -8.33398 -8 -11.001s-13.666 -5 -24.999 -7c-22.667 -4 -37.167 -11.167 -43.5 -21.5s-9.5 -26.5 -9.5 -48.5v-452
c0 -26 3.33301 -44.167 10 -54.5s22 -17.5 46 -21.5c12 -2 20.333 -4.16699 25 -6.5s7 -5.5 7 -9.5s-2.66699 -7.16699 -8 -9.5s-12.333 -3.5 -21 -3.5c-24.667 0 -44.667 1 -60 3c-17.333 1.33301 -32 2 -44 2c-13.333 -0 -28.666 -0.666992 -45.999 -2
c-16 -2 -36.333 -3 -61 -3c-8.66699 0 -15.667 1.16699 -21 3.5s-8 5.5 -8 9.5s2.33301 7.16699 7 9.5s13 4.5 25 6.5c46 8.66699 69 33 69 73v195v5c0 2.66699 -0.333008 5 -1 7s-2 3 -4 3h-382c-2 0 -3.33301 -1 -4 -3s-1 -4.66699 -1 -8v-190
c0 -20.667 7.5 -38.5 22.5 -53.5s34.167 -24.5 57.5 -28.5c12 -2 20.333 -4.16699 25 -6.5s7 -5.5 7 -9.5s-2.66699 -7.16699 -8 -9.5s-12.333 -3.5 -21 -3.5c-24.667 0 -46 1 -64 3c-21.333 1.33301 -39 2 -53 2c-13.333 -0 -29.333 -0.666992 -48 -2
c-16 -2 -36.667 -3 -62 -3c-8.66699 0 -15.667 1.16699 -21 3.5z" />
    <glyph glyph-name="I" unicode="I" horiz-adv-x="340" 
d="M19 6c0 4.66699 2.66895 8.33398 8.00195 11.001s13.666 5 24.999 7c26.667 4.66699 46.334 12.5 59.001 23.5s19 27.833 19 50.5v452c0 23.333 -4.83301 40 -14.5 50s-27.167 17.333 -52.5 22c-22 4 -33 10.667 -33 20c0 7.33301 9.66699 11 29 11
c18.667 0 40 -0.666992 64 -2l53 -1l48 1c21.333 1.33301 41.666 2 60.999 2s29 -3.66699 29 -11c0 -9.33301 -11 -16 -33 -20c-26 -4.66699 -44.333 -12.167 -55 -22.5s-16 -26.833 -16 -49.5v-452c0 -22.667 6.5 -39.5 19.5 -50.5s32.833 -18.833 59.5 -23.5
c11.333 -2 19.666 -4.33301 24.999 -7s8 -6.33398 8 -11.001c0 -7.33301 -9.66699 -11 -29 -11c-24.667 0 -46 1 -64 3c-21.333 1.33301 -39 2 -53 2c-16.667 -0 -37 -0.666992 -61 -2c-20 -2 -42.333 -3 -67 -3c-19.333 0 -29 3.66699 -29 11z" />
    <glyph glyph-name="J" unicode="J" horiz-adv-x="340" 
d="M-42.5 -187.5c-17.667 8.33301 -26.5 20.5 -26.5 36.5c0 10.667 4.5 21.167 13.5 31.5s17.5 15.5 25.5 15.5c18.667 0 34.334 -8.33301 47.001 -25c8.66699 -10.667 16.5 -18.334 23.5 -23.001s14.833 -7 23.5 -7c44 0 66 52.667 66 158v552
c0 22.667 -4.83301 39 -14.5 49s-26.834 17.333 -51.501 22c-22 4 -33 10.667 -33 20c0 7.33301 9.66699 11 29 11c18.667 0 40 -0.666992 64 -2l53 -1l37 1c17.333 1.33301 36.333 2 57 2c19.333 0 29 -3.66699 29 -11c0 -9.33301 -11 -16 -33 -20
c-24 -4.66699 -39.5 -11.667 -46.5 -21s-10.5 -26 -10.5 -50v-504c0 -37.333 -7.83301 -72.666 -23.5 -105.999s-34.167 -62.333 -55.5 -87c-30.667 -36 -63 -54 -97 -54c-33.333 0 -58.833 4.16699 -76.5 12.5z" />
    <glyph glyph-name="K" unicode="K" horiz-adv-x="681" 
d="M31 6c0 4.66699 2.6709 8.33496 8.00391 11.002s13.666 5 24.999 7c25.333 4.66699 42.833 12.5 52.5 23.5s14.5 28.833 14.5 53.5v450c0 22.667 -4.83301 39 -14.5 49s-27.167 17.333 -52.5 22c-22 4 -33 10.667 -33 20c0 7.33301 9.66699 11 29 11l62 -1
c10 -0.666992 26.667 -1 50 -1c18.667 0 31.667 0.333008 39 1l58 1c19.333 0 29 -3.66699 29 -11c0 -9.33301 -11 -16 -33 -20c-23.333 -4 -38.166 -11.333 -44.499 -22s-9.5 -27 -9.5 -49v-187c0 -12.667 1.66699 -19 5 -19s7.66602 1.83301 12.999 5.5
s10 7.83398 14 12.501l200 204c10 10 15 20 15 30c0 5.33301 -1.66699 10.166 -5 14.499s-8 7.16602 -14 8.49902c-11.333 3.33301 -19.333 6.33301 -24 9s-7 6.33398 -7 11.001c0 7.33301 9.66699 11 29 11h54c15.333 0 58 1 128 3l34 1c6.66699 0 12 -1 16 -3
s6 -4.66699 6 -8c0 -9.33301 -11 -16 -33 -20c-62.667 -11.333 -113.334 -33.333 -152.001 -66c-36 -30 -68.167 -59 -96.5 -87s-60.166 -61.333 -95.499 -100c-1.33301 -1.33301 -2 -3 -2 -5c0 -4 2.33301 -8.33301 7 -13l242 -258c23.333 -26 40.666 -42.833 51.999 -50.5
s30.666 -14.5 57.999 -20.5c12 -2.66699 20.5 -5.33398 25.5 -8.00098s7.5 -6 7.5 -10c0 -7.33301 -9.66699 -11 -29 -11c-26.667 0 -50.667 1 -72 3c-26.667 1.33301 -49 2 -67 2h-28c-8.66699 -0.666992 -26.334 -1 -53.001 -1c-19.333 0 -29 3.66699 -29 11
c0 4.66699 2 8.16699 6 10.5s11 4.5 21 6.5c18.667 4.66699 28 11.334 28 20.001c0 5.33301 -5 13.666 -15 24.999l-212 234c-11.333 11.333 -19 17 -23 17c-2.66699 0 -4 -4.66699 -4 -14c0 -40.667 1.66699 -107 5 -199c1.33301 -24 6.5 -43.333 15.5 -58
s25.167 -24 48.5 -28c11.333 -2 19.666 -4.33301 24.999 -7s8 -6.33398 8 -11.001c0 -7.33301 -9.66699 -11 -29 -11c-21.333 0 -40.666 1.33301 -57.999 4c-12 2 -25.333 3 -40 3c-11.333 0 -22.833 -0.5 -34.5 -1.5s-20.167 -1.5 -25.5 -1.5
c-25.333 -2.66699 -47.333 -4 -66 -4c-19.333 0 -29 3.66699 -29 11z" />
    <glyph glyph-name="L" unicode="L" horiz-adv-x="584" 
d="M34.5 -1.5c-5 2.33301 -7.49609 5.16797 -7.49609 8.50098c0 8 7.33301 13.667 22 17c27.333 5.33301 47.666 13.333 60.999 24s20 26.667 20 48v464c0 16 -1.66699 27.833 -5 35.5s-8.83301 13.167 -16.5 16.5s-20.834 6.66602 -39.501 9.99902c-22 4 -33 10.667 -33 20
c0 7.33301 9.66699 11 29 11c20 0 40.667 -0.666992 62 -2l50 -1l60 1c25.333 1.33301 47.333 2 66 2c19.333 0 29 -3.66699 29 -11c0 -9.33301 -11 -16 -33 -20c-31.333 -6 -54 -12.333 -68 -19s-21 -18.667 -21 -36v-471c0 -22 5 -37.667 15 -47s30.667 -14 62 -14h124
c16.667 0 32 2.66699 46 8s24.667 11.333 32 18c13.333 11.333 23.166 21.5 29.499 30.5s13.833 22.5 22.5 40.5c2.66699 6.66699 6 13.334 10 20.001s8 10 12 10s7 -1.83301 9 -5.5s3 -7.83398 3 -12.501l-1 -5c-8.66699 -32 -14.834 -56.5 -18.501 -73.5
s-6.5 -34.833 -8.5 -53.5c-1.33301 -11.333 -6 -17 -14 -17c-71.333 0 -137 1 -197 3c-68 1.33301 -116.667 2 -146 2c-20.667 -0 -46 -0.666992 -76 -2s-49.667 -2.33301 -59 -3c-8.66699 0 -15.5 1.16699 -20.5 3.5z" />
    <glyph glyph-name="M" unicode="M" horiz-adv-x="901" 
d="M19 6c0 4.66699 2.66797 8.33496 8.00098 11.002s13.666 5 24.999 7c34.667 6 55.334 32 62.001 78c27.333 205.333 41 347.333 41 426c0 15.333 -0.333008 26.333 -1 33c-0.666992 7.33301 -1.83398 13.5 -3.50098 18.5s-5.5 9.83301 -11.5 14.5
c-10.667 9.33301 -21.167 15.666 -31.5 18.999s-24.833 7 -43.5 11c-6.66699 1.33301 -12 3.83301 -16 7.5s-6 7.83398 -6 12.501s2.83301 7.66699 8.5 9s14.167 2 25.5 2c8.66699 0 33.667 -1.33301 75 -4s66.333 -4 75 -4c9.33301 0 15.666 -5.33301 18.999 -16l7 -26
c6 -24 11 -41 15 -51l158 -401c2 -6 6.33301 -9 13 -9c4.66699 0 8 2 10 6l197 410c8 30 14 55 18 75c2 8.66699 5.33301 13 10 13h36c10 0 34 1.66699 72 5c17.333 2 31.333 3 42 3c14 0 21 -3.33301 21 -10c0 -4.66699 -1.83301 -8.33398 -5.5 -11.001s-10.5 -6 -20.5 -10
c-6 -2 -14 -5 -24 -9l-35 -14c-7.33301 -3.33301 -13.166 -8 -17.499 -14s-6.5 -12.667 -6.5 -20c0 -58.667 1.16699 -113.667 3.5 -165s5.83301 -111.333 10.5 -180c4 -54.667 6.66699 -97.334 8 -128.001c0.666992 -20.667 7 -36.5 19 -47.5s30.667 -18.833 56 -23.5
c11.333 -2 19.666 -4.33301 24.999 -7s8 -6.33398 8 -11.001c0 -7.33301 -9.66699 -11 -29 -11c-24.667 0 -46 1 -64 3c-21.333 1.33301 -39 2 -53 2c-11.333 0 -26.333 -0.666992 -45 -2c-14.667 -2 -34.667 -3 -60 -3c-19.333 0 -29 3.66699 -29 11
c0 9.33301 11 15.333 33 18c19.333 2.66699 32.666 9.33398 39.999 20.001s11 28 11 52c0 68 -1.16699 130.833 -3.5 188.5s-3.83301 91.834 -4.5 102.501c-1.33301 16.667 -2.66602 42.334 -3.99902 77.001c-0.666992 6.66699 -2.66699 10 -6 10
c-2.66699 0 -6 -3.33301 -10 -10l-230 -469c-0.666992 -4 -3.66699 -6 -9 -6c-4 0 -7 2.33301 -9 7c-46 136.667 -107.333 295 -184 475c-1.33301 3.33301 -3.66602 5 -6.99902 5s-5.33301 -1.66699 -6 -5c-12 -88.667 -20.333 -157 -25 -205s-7 -102.667 -7 -164
c0 -18.667 5.83301 -35.334 17.5 -50.001s27.5 -24 47.5 -28c11.333 -2 19.666 -4.33301 24.999 -7s8 -6.33398 8 -11.001c0 -7.33301 -9.66699 -11 -29 -11c-24.667 0 -43.667 1 -57 3c-13.333 1.33301 -25.666 2 -36.999 2c-10 -0 -21.667 -0.666992 -35 -2
c-26 -2 -44.667 -3 -56 -3c-19.333 0 -29 3.66699 -29 11z" />
    <glyph glyph-name="N" unicode="N" horiz-adv-x="792" 
d="M629.5 0c-17.667 11.333 -33.5029 26.667 -47.5029 46c-5.33301 8 -44.166 54.667 -116.499 140l-157.5 187l-94 111c-8.66699 10.667 -15.667 16 -21 16c-3.33301 0 -5.66602 -2.16699 -6.99902 -6.5s-2 -9.16602 -2 -14.499c-3.33301 -164.667 -5 -289.667 -5 -375
c0 -45.333 21.333 -72 64 -80c11.333 -2 19.666 -4.33301 24.999 -7s8 -6.33398 8 -11.001c0 -7.33301 -9.66699 -11 -29 -11c-24.667 0 -43.667 1 -57 3c-13.333 1.33301 -25.666 2 -36.999 2c-10 -0 -21.667 -0.666992 -35 -2c-26 -2 -44.667 -3 -56 -3
c-19.333 0 -29 3.66699 -29 11c0 4 2.5 7.33301 7.5 10s13.5 5.66699 25.5 9c34 9.33301 53.333 36.666 58 81.999c4.66699 43.333 8.83398 101.833 12.501 175.5s5.5 148.5 5.5 224.5c0 32.667 -8.16699 57 -24.5 73s-41.166 29.333 -74.499 40
c-6 2 -12.667 5.16699 -20 9.5s-11 9.16602 -11 14.499s2.5 9 7.5 11s10.167 3 15.5 3l70 -3c32 -1.33301 60 -2 84 -2c5.33301 0 9.5 -1.16699 12.5 -3.5s6.83301 -6.83301 11.5 -13.5c8 -11.333 64.333 -80.666 169 -207.999l224 -272
c11.333 -13.333 19.666 -20 24.999 -20c6 0 9.33301 7 10 21c1.33301 50.667 2 186.334 2 407.001c-0.666992 12 -7.5 23.667 -20.5 35s-25.5 18 -37.5 20c-30 5.33301 -45 12 -45 20c0 3.33301 4.33301 6 13 8s18 3 28 3h57l50 1c21.333 1.33301 43 2 65 2
c19.333 0 29 -3.66699 29 -11c0 -9.33301 -11 -16 -33 -20c-24.667 -4.66699 -41 -10.667 -49 -18s-12.667 -19.333 -14 -36c-1.33301 -24 -2 -178.333 -2 -463c0 -26.667 1.33301 -52 4 -76l1 -21c0 -16.667 -7 -25 -21 -25c-8 0 -20.833 5.66699 -38.5 17z" />
    <glyph glyph-name="O" unicode="O" horiz-adv-x="763" 
d="M212.5 27.5c-51 27.667 -91.667 66.5 -122 116.5s-45.5 107 -45.5 171c0 61.333 13.333 118.666 40 171.999s65.667 96.166 117 128.499s112.666 48.5 183.999 48.5c58.667 0 113.5 -13.833 164.5 -41.5s91.667 -66.5 122 -116.5s45.5 -107 45.5 -171
c0 -61.333 -13.333 -118.666 -40 -171.999s-65.667 -96.166 -117 -128.499s-112.666 -48.5 -183.999 -48.5c-58.667 0 -113.5 13.833 -164.5 41.5zM563 95.5c39.333 46.333 59 109.831 59 190.498c0 63.333 -9.66699 120.333 -29 171s-47.833 90.834 -85.5 120.501
s-83.5 44.5 -137.5 44.5c-74 0 -130.667 -22.833 -170 -68.5s-59 -108.5 -59 -188.5c0 -63.333 9.5 -120.666 28.5 -171.999s47.333 -92 85 -122s83.5 -45 137.5 -45c74.667 0 131.667 23.167 171 69.5z" />
    <glyph glyph-name="P" unicode="P" horiz-adv-x="552" 
d="M24 6c0 4.66699 2.66602 8.33301 7.99902 11s13.666 5 24.999 7c26 4.66699 44.667 12.5 56 23.5s17 28.5 17 52.5v422c0 32 -4.16699 55.667 -12.5 71s-24.5 25 -48.5 29c-22 4 -33 10.667 -33 20c0 7.33301 9.66699 11 29 11c28.667 0 47.334 -0.333008 56.001 -1h42
c10 0 21.667 0.333008 35 1s23.333 1.33398 30 2.00098c17.333 2 32.666 3 45.999 3c76.667 0 138 -15.833 184 -47.5s69 -75.167 69 -130.5c0 -42 -8.16699 -80.167 -24.5 -114.5s-41.333 -61.5 -75 -81.5s-75.167 -30 -124.5 -30c-13.333 0 -24.166 2 -32.499 6
s-12.5 8.33301 -12.5 13c0 2.66699 1.83301 5.66699 5.5 9s7.16699 5 10.5 5c2 0 7.16699 -0.333008 15.5 -1s18.5 -1 30.5 -1c39.333 0 69.333 16.333 90 49s31 79 31 139c0 51.333 -15.167 90.333 -45.5 117s-70.833 40 -121.5 40c-42.667 0 -64 -14 -64 -42v-477
c0 -25.333 5.16699 -45 15.5 -59s27.5 -23.333 51.5 -28c11.333 -2 19.666 -4.33301 24.999 -7s8 -6.33398 8 -11.001c0 -7.33301 -9.66699 -11 -29 -11c-21.333 0 -40.666 1.33301 -57.999 4c-12 2 -25.333 3 -40 3c-12 0 -24.167 -0.5 -36.5 -1.5
s-21.166 -1.5 -26.499 -1.5c-26.667 -2.66699 -49 -4 -67 -4c-19.333 0 -29 3.66699 -29 11z" />
    <glyph glyph-name="Q" unicode="Q" horiz-adv-x="763" 
d="M626 -229.5c-33.333 12.333 -67.667 31.167 -103 56.5l-18 13l-67.5 48.5c-23 17 -47.167 36.167 -72.5 57.5c-16.667 14 -32.334 24.833 -47.001 32.5s-28.167 14.167 -40.5 19.5l-27.5 12c-136.667 64 -205 165.667 -205 305c0 61.333 13.333 118.666 40 171.999
s65.667 96.166 117 128.499s112.666 48.5 183.999 48.5c58.667 0 113.5 -13.833 164.5 -41.5s91.667 -66.5 122 -116.5s45.5 -107 45.5 -171c0 -51.333 -9.33301 -100.166 -28 -146.499s-46.334 -86.333 -83.001 -120s-80.667 -57.167 -132 -70.5
c-5.33301 -1.33301 -8 -3.66602 -8 -6.99902s1.33301 -6.33301 4 -9c36.667 -39.333 79 -76.333 127 -111c33.333 -24 64.333 -40.5 93 -49.5s62.667 -13.5 102 -13.5c26.667 0 45.334 2.33301 56.001 7c8 2.66699 14.333 4 19 4c7.33301 0 11 -2.66699 11 -8
c0 -6 -1.16699 -10.667 -3.5 -14s-7.16602 -7.33301 -14.499 -12c-36.667 -22 -75.667 -33 -117 -33c-45.333 0 -84.666 6.16699 -117.999 18.5zM562.999 95.501c39.333 46.333 59 109.831 59 190.498c0 63.333 -9.66699 120.333 -29 171s-47.833 90.834 -85.5 120.501
s-83.5 44.5 -137.5 44.5c-74 0 -130.667 -22.833 -170 -68.5s-59 -108.5 -59 -188.5c0 -63.333 9.5 -120.666 28.5 -171.999s47.333 -92 85 -122s83.5 -45 137.5 -45c74.667 0 131.667 23.167 171 69.5z" />
    <glyph glyph-name="R" unicode="R" horiz-adv-x="713" 
d="M557.5 -9c-22.333 8 -41.833 22.001 -58.5 42.001c-30.667 38 -56 70.5 -76 97.5s-45.333 65.5 -76 115.5c-10 16.667 -24.333 29.667 -43 39c-22 10.667 -48.333 17.667 -79 21h-2c-8.66699 0 -13 -6.66699 -13 -20v-176c0 -49.333 22.333 -78 67 -86
c11.333 -2 19.666 -4.33301 24.999 -7s8 -6.33398 8 -11.001c0 -7.33301 -9.66699 -11 -29 -11c-21.333 0 -40.666 1.33301 -57.999 4c-12 2 -25.333 3 -40 3c-12 0 -24.167 -0.5 -36.5 -1.5s-21.166 -1.5 -26.499 -1.5c-26.667 -2.66699 -49 -4 -67 -4
c-19.333 0 -29 3.66699 -29 11c0 4.66699 2.66699 8.33398 8 11.001s13.666 5 24.999 7c26 4.66699 44.667 12.5 56 23.5s17 28.5 17 52.5v426c0 28 -1.16699 47.833 -3.5 59.5s-7.66602 20.167 -15.999 25.5s-22.166 9 -41.499 11c-10.667 0.666992 -18.834 3 -24.501 7
s-8.5 8.33301 -8.5 13c0 7.33301 9.66699 11 29 11c28.667 0 47.334 -0.333008 56.001 -1h42c10 0 25 0.666992 45 2c36 2 59.333 3 70 3c73.333 0 129.166 -13.833 167.499 -41.5s57.5 -68.5 57.5 -122.5c0 -72 -39.333 -128 -118 -168
c-2 -0.666992 -3 -2.33398 -3 -5.00098c0 -2 1 -4.66699 3 -8c42 -63.333 75.833 -112 101.5 -146s59.5 -70 101.5 -108c16 -14 32.333 -23 49 -27s38.667 -6 66 -6c10 0 15 -3.66699 15 -11c0 -12.667 -8.83301 -21.667 -26.5 -27s-35.834 -8 -54.501 -8
c-30.667 0 -57.167 4 -79.5 12zM341.5 349.501c23 13.667 40.667 31.834 53 54.501s18.5 47 18.5 73c0 47.333 -10 84.166 -30 110.499s-59 39.5 -117 39.5c-20.667 0 -34.5 -6.5 -41.5 -19.5s-11.167 -37.5 -12.5 -73.5c-1.33301 -45.333 -2 -102 -2 -170
c0 -15.333 4 -25 12 -29s21.667 -6 41 -6c29.333 0 55.5 6.83301 78.5 20.5z" />
    <glyph glyph-name="S" unicode="S" horiz-adv-x="465" 
d="M63 32c-7.33301 7.33301 -11.665 13.998 -12.998 19.998c-2.66699 12 -5.66699 39.667 -9 83l-1 22c0 4.66699 1.83301 8.16699 5.5 10.5s8.5 3.5 14.5 3.5c8.66699 0 14 -3.66699 16 -11c12 -48.667 30.833 -84.667 56.5 -108s54.167 -35 85.5 -35
c34.667 0 63.334 11.167 86.001 33.5s34 51.833 34 88.5c0 26 -4.16699 47.5 -12.5 64.5s-19.833 31.333 -34.5 43s-36.667 26.5 -66 44.5l-20 12c-32.667 20 -58.334 37.333 -77.001 52s-34.667 32.667 -48 54s-20 45.666 -20 72.999c0 53.333 18 97 54 131
s87.667 51 155 51c34 0 69 -7.33301 105 -22c4.66699 -2 9 -5.33301 13 -10s6.66699 -9.66699 8 -15c6.66699 -23.333 11.667 -42.166 15 -56.499s5 -28.5 5 -42.5c0 -7.33301 -5 -11 -15 -11c-6 0 -11.833 1.33301 -17.5 4s-9.16699 6 -10.5 10
c-14.667 36.667 -31.5 64 -50.5 82s-42.167 27 -69.5 27c-33.333 0 -60.833 -9.16699 -82.5 -27.5s-32.5 -47.166 -32.5 -86.499c0 -18.667 6 -36 18 -52s27.167 -30.667 45.5 -44s43.833 -30 76.5 -50c31.333 -19.333 56.666 -36.666 75.999 -51.999
s35.666 -34.333 48.999 -57s20 -49.667 20 -81c0 -59.333 -20 -106.833 -60 -142.5s-92.667 -53.5 -158 -53.5c-56 0 -103 16 -141 48z" />
    <glyph glyph-name="T" unicode="T" horiz-adv-x="670" 
d="M185 6c0 4.66699 2.66992 8.33301 8.00293 11s13.666 5 24.999 7c26 4.66699 45.5 13 58.5 25s19.5 29.667 19.5 53v388c0 44.667 -1.5 74.834 -4.5 90.501s-8.5 24.167 -16.5 25.5c-8.66699 2 -18.834 3.16699 -30.501 3.5s-25.167 0.5 -40.5 0.5h-47
c-17.333 0 -33.666 -3.33301 -48.999 -10s-26.333 -16.334 -33 -29.001c-4 -8 -10.167 -16.333 -18.5 -25s-15.833 -13 -22.5 -13c-4.66699 0 -7 4.33301 -7 13c0 6.66699 1.66699 13.334 5 20.001c9.33301 18 16 34.5 20 49.5s7.66699 33.5 11 55.5
c2 15.333 7.66699 23 17 23c2 0 5.83301 -3.66699 11.5 -11s10.167 -14.333 13.5 -21c4 -6.66699 12.833 -11.667 26.5 -15s28.167 -5 43.5 -5h352c41.333 0 73 5 95 15c4 2 9.83301 5.83301 17.5 11.5s14.834 8.5 21.501 8.5c2 0 3.66699 -2.5 5 -7.5s2 -10.167 2 -15.5
c0 -2.66699 -1.33301 -12 -4 -28l-6 -30c-2.66699 -8 -4 -17.667 -4 -29v-12c0 -6.66699 -1.5 -13.667 -4.5 -21s-6.83301 -11 -11.5 -11s-8.33398 3.16699 -11.001 9.5s-5.33398 16.833 -8.00098 31.5s-11 26 -25 34s-36.333 12 -67 12h-101c-16.667 0 -28.167 -2 -34.5 -6
s-10.5 -13.5 -12.5 -28.5s-3 -41.833 -3 -80.5v-393c0 -23.333 6.66699 -41 20 -53s33 -20.333 59 -25c11.333 -2 19.666 -4.33301 24.999 -7s8 -6.33398 8 -11.001c0 -7.33301 -9.66699 -11 -29 -11c-24.667 0 -46 1 -64 3c-21.333 1.33301 -39 2 -53 2
c-16.667 -0 -37 -0.666992 -61 -2c-20 -2 -42.333 -3 -67 -3c-19.333 0 -29 3.66699 -29 11z" />
    <glyph glyph-name="U" unicode="U" horiz-adv-x="738" 
d="M172 54c-46 45.333 -69.002 107.333 -69.002 186v307c0 22 -4.33301 38.833 -13 50.5s-19.667 19.167 -33 22.5c-22 6 -33 13.333 -33 22c0 7.33301 9.66699 11 29 11l43 -1c21.333 -1.33301 39 -2 53 -2l48 1c8 0.666992 18.667 1 32 1c19.333 0 29 -3.66699 29 -11
c0 -4 -2.33301 -7.33301 -7 -10s-13.334 -6 -26.001 -10c-9.33301 -2.66699 -18.666 -10.834 -27.999 -24.501s-14 -29.5 -14 -47.5v-281c0 -77.333 19 -135.333 57 -174s89 -58 153 -58c66.667 0 116.5 23.167 149.5 69.5s49.5 109.833 49.5 190.5
c0 40.667 -1.33301 112.334 -4 215.001c-0.666992 28 -4.33398 52.167 -11.001 72.5s-16.667 32.5 -30 36.5c-22 6 -33 12.667 -33 20s9.66699 11 29 11l75 -1c12.667 0 28.334 0.666992 47.001 2l34 1c19.333 0 29 -3.66699 29 -11c0 -8.66699 -11 -15.334 -33 -20.001
c-31.333 -6 -48 -31 -50 -75c-2.66699 -40.667 -4.5 -82.167 -5.5 -124.5s-1.83301 -70.833 -2.5 -85.5c0 -19.333 -0.666992 -48.333 -2 -87c-1.33301 -50.667 -13.666 -96.167 -36.999 -136.5s-54.666 -71.666 -93.999 -93.999s-83.333 -33.5 -132 -33.5
c-87.333 0 -154 22.667 -200 68z" />
    <glyph glyph-name="V" unicode="V" horiz-adv-x="672" 
d="M307 -5c-2 4.66699 -9 24.999 -21 60.999l-183 491c-14.667 39.333 -38 63.666 -70 72.999c-11.333 4 -19.666 7.66699 -24.999 11s-8 7 -8 11c0 7.33301 9.66699 11 29 11l49 -1c30.667 -1.33301 55 -2 73 -2l68 1c9.33301 0.666992 20.666 1 33.999 1
c19.333 0 29 -3.66699 29 -11c0 -4.66699 -2.83301 -9 -8.5 -13s-13.834 -6.33301 -24.501 -7c-43.333 -4.66699 -65 -17.667 -65 -39c0 -12.667 1.66699 -23.667 5 -33s5.33301 -14.666 6 -15.999l144 -380c1.33301 -3.33301 3 -5 5 -5s4 2 6 6l137 360
c6.66699 17.333 10 33 10 47c0 18 -5.16699 31.833 -15.5 41.5s-24.166 15.5 -41.499 17.5c-10 1.33301 -18 3.83301 -24 7.5s-9 7.83398 -9 12.501c0 7.33301 9.66699 11 29 11l99 -1c16 0 38.667 0.666992 68 2l46 1c19.333 0 29 -3.66699 29 -11
c0 -8.66699 -11 -15.334 -33 -20.001c-22.667 -5.33301 -42.5 -16.166 -59.5 -32.499s-29.833 -34.5 -38.5 -54.5l-188 -456l-7 -19c-8 -26 -16 -47.667 -24 -65c-2 -4.66699 -5.33301 -7 -10 -7c-5.33301 0 -9 2.33301 -11 7z" />
    <glyph glyph-name="W" unicode="W" horiz-adv-x="916" 
d="M321 12l-216.004 542.006c-16 34.667 -40 56.667 -72 66c-11.333 4 -19.666 7.66699 -24.999 11s-8 7 -8 11c0 7.33301 9.66699 11 29 11l42 -1c20 -1.33301 35.667 -2 47 -2l60 1c8.66699 0.666992 19.667 1 33 1c19.333 0 29 -3.66699 29 -11
c0 -4.66699 -2.5 -8.33398 -7.5 -11.001s-13.5 -5.66699 -25.5 -9c-13.333 -3.33301 -20 -14.333 -20 -33c0 -8.66699 1.16699 -17.334 3.5 -26.001s3.83301 -14.334 4.5 -17.001l79 -197.5l85 -195.5c2.66699 -6.66699 5.33398 -10 8.00098 -10s5 3 7 9l78 193
c4 10 6 17.667 6 23s-2.66699 15 -8 29l-57 142c-8 20 -21 37.333 -39 52s-36.667 24.667 -56 30c-11.333 3.33301 -19.666 6.83301 -24.999 10.5s-8 7.5 -8 11.5c0 7.33301 9.66699 11 29 11l43 -1c21.333 -1.33301 38.333 -2 51 -2l46 1c8 0.666992 18.333 1 31 1
c19.333 0 29 -3.66699 29 -11c0 -3.33301 -1.5 -6.33301 -4.5 -9s-7.5 -5.66699 -13.5 -9c-15.333 -6.66699 -23 -14.667 -23 -24c0 -1.33301 0.666992 -4 2 -8c4.66699 -13.333 11.5 -31.5 20.5 -54.5s17.167 -42.5 24.5 -58.5
c0.666992 -1.33301 1.83398 -3.83301 3.50098 -7.5s3.5 -5.5 5.5 -5.5s5 4.33301 9 13c13.333 30 26.666 67.667 39.999 113c0.666992 2 1 4.33301 1 7c0 6 -1.83301 10.833 -5.5 14.5s-8.83398 7.5 -15.501 11.5c-0.666992 0.666992 -2.66699 2 -6 4s-5.83301 4 -7.5 6
s-2.5 4.33301 -2.5 7c0 7.33301 9.66699 11 29 11l32 -1c4 -0.666992 10.667 -1 20 -1l29 1c12 1.33301 22 2 30 2c19.333 0 29 -3.66699 29 -11c0 -8.66699 -11 -15.334 -33 -20.001c-20 -4.66699 -34 -10 -42 -16s-16.667 -16.667 -26 -32
c-5.33301 -9.33301 -13.5 -26.666 -24.5 -51.999s-20.5 -49 -28.5 -71c-2.66699 -6 -4.66699 -13 -6 -21s-1.33301 -13.667 0 -17l103 -265c1.33301 -2.66699 2.33301 -4 3 -4c2 0 4.66699 3.33301 8 10c25.333 67.333 66 196.333 122 387c4 12 6 24 6 36
c0 23.333 -10 37.666 -30 42.999c-22 6 -33 12.667 -33 20s9.66699 11 29 11l72 -1c12.667 0 29.667 0.666992 51 2l39 1c19.333 0 29 -3.66699 29 -11c0 -8.66699 -11 -15.334 -33 -20.001c-35.333 -8 -62.666 -37.333 -81.999 -88l-177 -523
c-1.33301 -4 -3.5 -8.83301 -6.5 -14.5s-6.16699 -8.5 -9.5 -8.5c-2.66699 0 -5.66699 2 -9 6s-6 8.33301 -8 13c-24.667 55.333 -50.667 119.666 -78 192.999l-45 116c-2 4 -3.33301 6 -4 6c-1.33301 0 -3.66602 -4 -6.99902 -12l-57.5 -141
c-15.667 -40 -34.5 -91.333 -56.5 -154c-2.66699 -8 -6 -15.167 -10 -21.5s-8 -9.5 -12 -9.5c-2 0 -6.66699 9.33301 -14 28z" />
    <glyph glyph-name="X" unicode="X" horiz-adv-x="707" 
d="M-5 6c0 4.66699 2.67188 8.67969 8.00488 12.0127s13.666 6.66602 24.999 9.99902c20.667 6 45 17.667 73 35s51.333 37.666 70 60.999l125 156c10 14 15 25.333 15 34s-3.33301 17.667 -10 27l-134 188c-22.667 31.333 -42.5 53.166 -59.5 65.499
s-35.833 21.5 -56.5 27.5c-11.333 4 -19.666 7.66699 -24.999 11s-8 7 -8 11c0 7.33301 9.66699 11 29 11c8.66699 0 27.667 -0.666992 57 -2c9.33301 -0.666992 21.166 -1.33398 35.499 -2.00098s31.166 -1 50.499 -1l68 1c8.66699 0.666992 19 1 31 1
c19.333 0 29 -3.66699 29 -11c0 -4 -2.33301 -7.33301 -7 -10s-13.334 -6 -26.001 -10c-20 -6 -33.5 -10.833 -40.5 -14.5s-10.5 -9.16699 -10.5 -16.5c0 -10.667 11 -31.334 33 -62.001l91 -128c7.33301 -10 12.666 -15 15.999 -15s8 4 14 12l107 141
c17.333 22 26 39 26 51c0 15.333 -15 25.666 -45 30.999c-8 2 -15.5 4.83301 -22.5 8.5s-10.5 7.5 -10.5 11.5c0 7.33301 9.66699 11 29 11l81 -1c14.667 0 27.667 0.333008 39 1s20.666 1.33398 27.999 2.00098c18 2 33.667 3 47 3c19.333 0 29 -3.66699 29 -11
c0 -4.66699 -2.5 -8.33398 -7.5 -11.001s-13.5 -5.66699 -25.5 -9c-17.333 -4.66699 -36.5 -16.834 -57.5 -36.501s-45.167 -45.834 -72.5 -78.501l-115 -136c-5.33301 -6 -9.5 -11.333 -12.5 -16s-4.5 -8.66699 -4.5 -12c0 -2.66699 1 -6.66699 3 -12l155 -223
c15.333 -22 32.333 -40.5 51 -55.5s37.334 -24.833 56.001 -29.5c12 -3.33301 20.5 -6.33301 25.5 -9s7.5 -6.33398 7.5 -11.001c0 -7.33301 -9.66699 -11 -29 -11l-54 2c-38.667 2.66699 -68.334 4 -89.001 4l-103 -1c-19.333 0 -29 3.66699 -29 11s11 14 33 20
c11.333 3.33301 21.5 9.16602 30.5 17.499s13.5 18.166 13.5 29.499s-4 22.333 -12 33l-104 151c-5.33301 7.33301 -9.66602 11 -12.999 11c-2.66699 0 -5.66699 -2 -9 -6l-135 -174c-6 -8 -9 -15.667 -9 -23c0 -9.33301 4 -17.5 12 -24.5s19 -12.167 33 -15.5
c12 -3.33301 20.5 -6.33301 25.5 -9s7.5 -6.33398 7.5 -11.001c0 -7.33301 -9.66699 -11 -29 -11c-12 0 -22 0.333008 -30 1l-59 1c-16.667 0 -31 -0.333008 -43 -1s-22 -1.33398 -30 -2.00098c-18.667 -2 -36.334 -3 -53.001 -3c-19.333 0 -29 3.66699 -29 11z" />
    <glyph glyph-name="Y" unicode="Y" horiz-adv-x="578" 
d="M153 6c0 4.66699 2.66895 8.33594 8.00195 11.0029s13.666 5 24.999 7c52 9.33301 78 37.333 78 84v148c0 11.333 -2.83301 24.166 -8.5 38.499s-11.167 26.166 -16.5 35.499l-117 192c-36.667 58.667 -66.334 91.334 -89.001 98.001
c-11.333 4 -19.666 7.66699 -24.999 11s-8 7 -8 11c0 7.33301 9.66699 11 29 11l46 -1c29.333 -1.33301 53 -2 71 -2l48 1c8 0.666992 18.667 1 32 1c19.333 0 29 -3.66699 29 -11c0 -8 -11 -14.667 -33 -20c-11.333 -2.66699 -19.5 -5.83398 -24.5 -9.50098
s-7.5 -8.83398 -7.5 -15.501c0 -8.66699 4.33301 -20.667 13 -36l92 -170c13.333 -25.333 22.666 -38 27.999 -38c4 0 8 2.5 12 7.5s11 15.167 21 30.5c20 32 42 69.333 66 112c2.66699 5.33301 8.66699 16 18 32c12 20 18 37 18 51c0 19.333 -13.667 31 -41 35
c-7.33301 1.33301 -14.666 4 -21.999 8s-11 8 -11 12c0 7.33301 9.66699 11 29 11l75 -1c18.667 0 40.667 0.666992 66 2l38 1c19.333 0 29 -3.66699 29 -11c0 -4 -4.5 -8 -13.5 -12s-22.167 -8.33301 -39.5 -13c-16 -4.66699 -29.5 -13 -40.5 -25s-26.833 -34 -47.5 -66
l-111 -176c-12 -20 -19.167 -34.667 -21.5 -44s-3.5 -24.666 -3.5 -45.999v-152c0 -22.667 6.83301 -41.167 20.5 -55.5s33.167 -23.833 58.5 -28.5c11.333 -2 19.666 -4.33301 24.999 -7s8 -6.33398 8 -11.001c0 -7.33301 -9.66699 -11 -29 -11c-24.667 0 -46 1 -64 3
c-21.333 1.33301 -39 2 -53 2c-16.667 -0 -37 -0.666992 -61 -2c-20 -2 -42.333 -3 -67 -3c-19.333 0 -29 3.66699 -29 11z" />
    <glyph glyph-name="Z" unicode="Z" horiz-adv-x="603" 
d="M363 -3l-131.999 0.996094l-119 -1h-77c-2.66699 0 -4.5 2 -5.5 6s-1.5 6.66699 -1.5 8c0 4.66699 6.33301 16.834 19 36.501s25.667 38.5 39 56.5c10.667 15.333 31.667 44 63 86l152.5 210.5l132.5 192.5c2.66699 4 4 6.66699 4 8
c0 4.66699 -6.33301 7.33398 -19 8.00098c-48 1.33301 -96.667 2 -146 2c-51.333 0 -85.333 -0.666992 -102 -2c-18.667 -2 -37.667 -9.16699 -57 -21.5s-33 -29.833 -41 -52.5c-4 -9.33301 -8 -17 -12 -23s-9.33301 -9 -16 -9c-6 0 -9 3.66699 -9 11
c0 5.33301 2.33301 14.333 7 27c16 47.333 25 86.666 27 117.999c0.666992 11.333 5.66699 17 15 17c2 0 6.66699 -1.83301 14 -5.5l17 -8.5c8 -3.33301 20.5 -6.83301 37.5 -10.5s33.167 -5.5 48.5 -5.5h126c80 0 157 1 231 3c3.33301 0 6.5 -2.33301 9.5 -7
s3.5 -8.33398 1.5 -11.001l-61 -81l-188.5 -258.5c-43 -60.333 -92.833 -134.166 -149.5 -221.499c-2 -2.66699 -3 -6.66699 -3 -12c0 -4 1 -7.66699 3 -11s4.66699 -5.33301 8 -6c32 -3.33301 69.667 -5 113 -5c42 0 89 1.66699 141 5c29.333 2.66699 54 12.834 74 30.501
s36.667 43.834 50 78.501c2 4.66699 5 9.33398 9 14.001s8.33301 7 13 7c6 0 9 -4.33301 9 -13c0 -6 -4.83301 -29 -14.5 -69s-17.167 -65.667 -22.5 -77c-2.66699 -6 -5.16699 -10.333 -7.5 -13s-5.83301 -4 -10.5 -4c-42.667 0 -99.334 0.666992 -170.001 2z" />
    <glyph glyph-name="bracketleft" unicode="[" horiz-adv-x="331" 
d="M116 -196c-4 2.66699 -6 9.66602 -6 20.999v843c0 11.333 1 19.333 3 24s5.33301 7.5 10 8.5s13 1.5 25 1.5l145 -1c12 0 18 -4.33301 18 -13s-8.66699 -13.667 -26 -15l-79 -6c-4.66699 -0.666992 -9.66699 -3.66699 -15 -9s-8 -10.666 -8 -15.999v-763
c0 -8.66699 2.33301 -16 7 -22s10 -9.66699 16 -11l79 -13c17.333 -2.66699 26 -8.66699 26 -18c0 -10 -8.66699 -15 -26 -15h-144c-12.667 0 -21 1.33301 -25 4z" />
    <glyph glyph-name="backslash" unicode="\" horiz-adv-x="399" 
d="M339 -59c-6 2 -10.332 6 -12.999 12l-297 695c-0.666992 1.33301 -1 3.33301 -1 6c0 7.33301 4.66699 11 14 11c10 0 18.167 -1.16699 24.5 -3.5s11.166 -6.83301 14.499 -13.5l297 -695l1 -4c0 -3.33301 -1.5 -6 -4.5 -8s-7.16699 -3 -12.5 -3c-9.33301 0 -17 1 -23 3z
" />
    <glyph glyph-name="bracketright" unicode="]" horiz-adv-x="331" 
d="M215 -196c4 2.66699 6 9.66602 6 20.999v843c0 11.333 -1 19.333 -3 24s-5.33301 7.5 -10 8.5s-13 1.5 -25 1.5l-145 -1c-12 0 -18 -4.33301 -18 -13s8.66699 -13.667 26 -15l79 -6c4.66699 -0.666992 9.66699 -3.66699 15 -9s8 -10.666 8 -15.999v-763
c0 -8.66699 -2.33301 -16 -7 -22s-10 -9.66699 -16 -11l-79 -13c-17.333 -2.66699 -26 -8.66699 -26 -18c0 -10 8.66699 -15 26 -15h144c12.667 0 21 1.33301 25 4z" />
    <glyph glyph-name="asciicircum" unicode="^" horiz-adv-x="500" 
d="M50.5 287c-1.66699 2 -2.50098 4.66602 -2.50098 7.99902c0 4 1 7.33301 3 10l197 298h3l198 -298c2 -2.66699 3 -6 3 -10c0 -7.33301 -3 -11 -9 -11c-7.33301 0 -15.166 1.83301 -23.499 5.5s-14.166 7.83398 -17.499 12.501l-148 212c-2.66699 3.33301 -4.5 5 -5.5 5
s-2.5 -1.66699 -4.5 -5l-146 -211c-4 -5.33301 -10.167 -9.83301 -18.5 -13.5s-15.833 -5.5 -22.5 -5.5c-2.66699 0 -4.83398 1 -6.50098 3z" />
    <glyph glyph-name="underscore" unicode="_" horiz-adv-x="500" 
d="M496.5 -135.5c3 -2.33301 4.5 -4.83301 4.5 -7.5c0 -7.33301 -3.5 -15.666 -10.5 -24.999s-14.167 -14 -21.5 -14h-455c-3.33301 0 -6.5 1.16699 -9.5 3.5s-4.5 5.16602 -4.5 8.49902c0 7.33301 2 15.5 6 24.5s10 13.5 18 13.5h463c3.33301 0 6.5 -1.16699 9.5 -3.5z" />
    <glyph glyph-name="grave" unicode="`" horiz-adv-x="200" 
d="M140 478c-14 14 -32.668 34.8301 -56.001 62.4971s-40.666 49.834 -51.999 66.501c-1.33301 1.33301 -3.33301 4 -6 8s-4 8.33301 -4 13c0 6.66699 4.83301 11.834 14.5 15.501s21.167 5.5 34.5 5.5c4.66699 0 9.5 -1.66699 14.5 -5s9.16699 -7.66602 12.5 -12.999
l42.5 -76c17 -31.333 28.5 -55 34.5 -71c2.66699 -7.33301 4 -13.333 4 -18c0 -6 -2.66699 -9 -8 -9c-6.66699 0 -17 7 -31 21z" />
    <glyph glyph-name="a" unicode="a" horiz-adv-x="399" 
d="M81 -0.5c-12.667 9 -23.168 20.3311 -31.501 33.998s-12.5 26.5 -12.5 38.5c0 20.667 5.5 37 16.5 49s29.167 23.333 54.5 34l102 42c12.667 5.33301 20.334 10 23.001 14s4.33398 12.667 5.00098 26l2 64c0.666992 18 -4.33301 33.167 -15 45.5
s-25.334 18.5 -44.001 18.5c-10 0 -20 -1.66699 -30 -5s-18.333 -7.66602 -25 -12.999c-6.66699 -4.66699 -10 -14.334 -10 -29.001l1 -18c0 -5.33301 -8.5 -12.5 -25.5 -21.5s-30.5 -13.5 -40.5 -13.5c-3.33301 0 -6 0.833008 -8 2.5s-3 3.83398 -3 6.50098
c0 10.667 3.5 22.167 10.5 34.5s16.833 23.833 29.5 34.5c22.667 20.667 48.167 37.667 76.5 51s52.5 20 72.5 20c24 0 43.833 -8.5 59.5 -25.5s23.167 -38.167 22.5 -63.5l-5 -240c-0.666992 -14 2.33301 -25.333 9 -34s15.667 -13 27 -13c16.667 0 29 3.66699 37 11
c3.33301 3.33301 6 5 8 5c3.33301 0 6 -1 8 -3s3 -4.66699 3 -8c0 -2.66699 -1 -6.16699 -3 -10.5s-4.66699 -8.16602 -8 -11.499c-10.667 -10.667 -22.167 -19.167 -34.5 -25.5s-23.833 -9.5 -34.5 -9.5c-30.667 0 -55 17.333 -73 52h-3c-22 -18 -43 -31.167 -63 -39.5
s-40.667 -12.5 -62 -12.5c-11.333 0 -23.333 4.5 -36 13.5zM222.999 57.998c4 4 6.99902 9.00098 8.99902 15.001s3.33301 14.667 4 26l2 49v6c0 5.33301 -0.666992 9.16602 -2 11.499s-3.66602 3.5 -6.99902 3.5c-4 0 -10.667 -1.66699 -20 -5
c-33.333 -12 -57.333 -24.667 -72 -38s-22 -26.333 -22 -39c0 -16.667 4.83301 -29.667 14.5 -39s21.167 -14 34.5 -14c23.333 0 43 8 59 24z" />
    <glyph glyph-name="b" unicode="b" horiz-adv-x="515" 
d="M173 -1l-12.4971 4.00293l-13.5 4c-6 1.33301 -12.667 3 -20 5s-12 3 -14 3c-6 0 -13.333 -4.33301 -22 -13c-3.33301 -3.33301 -6.33301 -5 -9 -5c-3.33301 0 -6.5 1.16699 -9.5 3.5s-4.5 5.16602 -4.5 8.49902c0 6 1 14 3 24c2.66699 20 4 36 4 48v485
c0 17.333 -4.16699 32.333 -12.5 45s-19.5 22 -33.5 28c-8.66699 4.66699 -13 9.66699 -13 15s4 8.66602 12 9.99902c11.333 2 28.666 7.5 51.999 16.5s41 16.167 53 21.5c4 2 7 3 9 3c1.33301 0 2.66602 -0.666992 3.99902 -2s2 -3 2 -5s-0.5 -12.833 -1.5 -32.5
s-1.5 -43.834 -1.5 -72.501v-205c0 -12.667 0.666992 -21.167 2 -25.5s3.66602 -6.83301 6.99902 -7.5c20.667 17.333 44.667 31.5 72 42.5s52 16.5 74 16.5c33.333 0 63.666 -8.66699 90.999 -26s49 -41 65 -71s24 -63.333 24 -100c0 -45.333 -9.33301 -85.5 -28 -120.5
s-44.667 -62.167 -78 -81.5s-71.666 -29 -114.999 -29c-25.333 0 -54 4.33301 -86 13zM371.503 67.5029c22.333 33.667 33.502 76.168 33.502 127.501c0 27.333 -5.16699 54.666 -15.5 81.999s-25.833 50 -46.5 68s-46 27 -76 27c-48.667 0 -89.334 -15.333 -122.001 -46
v-194c0 -34 13.667 -61.667 41 -83s59.333 -32 96 -32c37.333 0 67.166 16.833 89.499 50.5z" />
    <glyph glyph-name="c" unicode="c" horiz-adv-x="407" 
d="M122.5 10.5c-27 17 -48.332 40.334 -63.999 70.001s-23.5 62.834 -23.5 99.501c0 42.667 9.5 81.834 28.5 117.501s44.5 64 76.5 85s67.333 31.5 106 31.5c43.333 0 81.333 -11.667 114 -35c8 -6 12 -12.333 12 -19c0 -8.66699 -5 -17.667 -15 -27s-19.333 -14 -28 -14
c-3.33301 0 -6.66602 1.16699 -9.99902 3.5l-11 7.5c-16.667 12.667 -33.667 23.667 -51 33s-31.666 14 -42.999 14c-32.667 0 -59.167 -15.333 -79.5 -46s-30.5 -70.334 -30.5 -119.001c0 -30.667 6.66699 -58.834 20 -84.501s31.666 -45.834 54.999 -60.501s49 -22 77 -22
c19.333 0 36 3.16699 50 9.5s29 17.5 45 33.5c3.33301 3.33301 6.66602 5 9.99902 5s6 -1.33301 8 -4s3 -6 3 -10c0 -7.33301 -5 -17.666 -15 -30.999c-16 -20.667 -36.333 -36.334 -61 -47.001s-52.334 -16 -83.001 -16c-33.333 0 -63.5 8.5 -90.5 25.5z" />
    <glyph glyph-name="d" unicode="d" horiz-adv-x="506" 
d="M350.5 -15c-3 2.66699 -4.49707 4.66797 -4.49707 6.00098l2 26c2 12 3 23.333 3 34v6c-12 -18.667 -29.333 -35.167 -52 -49.5s-49 -21.5 -79 -21.5c-36.667 0 -69 9.66699 -97 29s-49.667 44.833 -65 76.5s-23 64.5 -23 98.5c0 39.333 9.16699 76.166 27.5 110.499
s44.5 61.833 78.5 82.5s73.667 31 119 31c12.667 0 25.667 -1.16699 39 -3.5s24.333 -4.83301 33 -7.5c6 -2 10.333 -3 13 -3c2 0 3.66699 2 5 6s2 10 2 18v142c0 25.333 -4 43 -12 53s-20.667 16.667 -38 20c-6 1.33301 -9 5.66602 -9 12.999c0 6 2.66699 10 8 12
c35.333 8.66699 61.666 16.834 78.999 24.501s27 11.834 29 12.501c5.33301 2 9.66602 3 12.999 3c4 0 6.33301 -2 7 -6c0 -4 -1.16699 -16.667 -3.5 -38s-3.5 -54 -3.5 -98v-452c0 -23.333 1.66699 -40 5 -50s8.66602 -15 15.999 -15c11.333 0 25.666 1 42.999 3h5
c8.66699 0 13 -3 13 -9c0 -4.66699 -1.5 -8.83398 -4.5 -12.501s-6.16699 -5.5 -9.5 -5.5c-36 -4.66699 -75 -16 -117 -34c-7.33301 -4 -12.666 -6 -15.999 -6c-1.33301 0 -3.5 1.33301 -6.5 4zM307.003 51.501c16.667 9 31.333 20.833 44 35.5l1 180
c0 18 -5.16699 35.667 -15.5 53s-25 31.5 -44 42.5s-40.167 16.5 -63.5 16.5c-18 0 -36.333 -5 -55 -15s-34.667 -27.333 -48 -52s-20 -57.667 -20 -99c0 -46 8.66699 -82 26 -108s37.333 -43.667 60 -53s44 -14 64 -14c17.333 0 34.333 4.5 51 13.5z" />
    <glyph glyph-name="e" unicode="e" horiz-adv-x="390" 
d="M117.5 12c-27.667 18 -49.168 43.502 -64.501 76.502s-23 71.167 -23 114.5c0 37.333 8.83301 72.333 26.5 105s41.167 58.5 70.5 77.5s61.333 28.5 96 28.5c40 0 72.833 -11.833 98.5 -35.5s38.5 -53.834 38.5 -90.501c0 -20.667 -10 -31 -30 -31h-211
c-9.33301 0 -15.833 -2.5 -19.5 -7.5s-5.5 -14.833 -5.5 -29.5c0 -31.333 6.83301 -60.333 20.5 -87s32.334 -47.834 56.001 -63.501s49.5 -23.5 77.5 -23.5c39.333 0 72 15 98 45c4 5.33301 7.66699 8 11 8c5.33301 0 8 -3.33301 8 -10c0 -12.667 -6 -26.667 -18 -42
c-14.667 -19.333 -34 -34.5 -58 -45.5s-49.333 -16.5 -76 -16.5c-36 0 -67.833 9 -95.5 27zM211.999 288.002c31.333 0 56.001 1.66602 74.001 4.99902c5.33301 0.666992 8 8 8 22c0 19.333 -8.5 35.833 -25.5 49.5s-37.167 20.5 -60.5 20.5
c-14.667 0 -29.834 -4.5 -45.501 -13.5s-28.5 -20.167 -38.5 -33.5s-15 -26.666 -15 -39.999c0 -6.66699 4 -10 12 -10h91z" />
    <glyph glyph-name="f" unicode="f" horiz-adv-x="318" 
d="M24 8c0 4.66699 1.83594 8.00098 5.50293 10.001s9.5 4 17.5 6c16 3.33301 27.167 8.16602 33.5 14.499s9.5 16.166 9.5 29.499v282c-20.667 0 -38 0.666992 -52 2c-2 0.666992 -4.83301 3 -8.5 7s-5.5 7.66699 -5.5 11c0 2 2.33301 4 7 6l59 30
c0 71.333 11.5 129.5 34.5 174.5s51.333 77.167 85 96.5s67.167 29 100.5 29c36 0 63.333 -5.5 82 -16.5s28 -25.5 28 -43.5c0 -12.667 -3.33301 -22.5 -10 -29.5s-14.667 -10.5 -24 -10.5c-4.66699 0 -8.83398 1.33301 -12.501 4s-7.66699 6 -12 10s-7.5 7 -9.5 9
c-10.667 10.667 -22.334 19.334 -35.001 26.001s-29 10 -49 10c-32.667 0 -58.834 -14.167 -78.501 -42.5s-29.5 -69.833 -29.5 -124.5v-88c0 -6.66699 3.66699 -10 11 -10h125c3.33301 0 6.33301 -1.16699 9 -3.5s4 -4.83301 4 -7.5c0 -11.333 -2 -21 -6 -29
c-2 -5.33301 -5 -8 -9 -8h-115c-7.33301 0 -12.333 -1 -15 -3s-4 -5.33301 -4 -10v-271c0 -14 4.5 -24.167 13.5 -30.5s26.5 -10.833 52.5 -13.5c15.333 -2 23 -7.33301 23 -16c0 -7.33301 -6.66699 -11 -20 -11c-20 0 -38 1 -54 3c-21.333 1.33301 -37.333 2 -48 2
c-12 0 -24.667 -0.666992 -38 -2c-12 -2 -27 -3 -45 -3c-13.333 0 -20 3.66699 -20 11z" />
    <glyph glyph-name="g" unicode="g" horiz-adv-x="435" 
d="M437 384c2.66699 -2.66699 4.00098 -6.33105 4.00098 -10.998c0 -6 -3.33301 -12.333 -10 -19c-3.33301 -3.33301 -6 -5 -8 -5h-27c-18 0 -28 -2.66699 -30 -8c-4 -12 -6 -27.333 -6 -46c0 -33.333 -7.33301 -64.5 -22 -93.5s-34.167 -52.167 -58.5 -69.5
s-50.5 -26 -78.5 -26c-19.333 0 -37 3.33301 -53 10c-12 -6 -22 -13 -30 -21s-12 -15 -12 -21c0 -28 43.333 -44.667 130 -50c61.333 -3.33301 107 -13.333 137 -30s45 -40.334 45 -71.001c0 -33.333 -11 -66.666 -33 -99.999s-50.333 -60.5 -85 -81.5
s-69.667 -31.5 -105 -31.5c-56.667 0 -101.5 10.667 -134.5 32s-49.5 50.666 -49.5 87.999c0 17.333 2.66699 31.833 8 43.5s13.666 22.167 24.999 31.5l40 32l44 35c-31.333 6 -53.833 14.667 -67.5 26s-20.5 26.666 -20.5 45.999c0 12 7.66699 24.333 23 37l37 28.5
c8.66699 7 15 13.5 19 19.5c-24 14 -43.333 32.5 -58 55.5s-22 47.5 -22 73.5c0 30 8 57 24 81s37.333 42.833 64 56.5s55.334 20.5 86.001 20.5c20 0 44 -4.66699 72 -14c4.66699 -2 11.667 -4.33301 21 -7c14.667 -4 26.667 -6.66699 36 -8s19.666 -2 30.999 -2
c7.33301 0 18.333 0.666992 33 2l22 1c3.33301 0 6.33301 -1.33301 9 -4zM269.501 179.503c17 25.667 25.499 57.501 25.499 95.501c0 18.667 -4.5 36.667 -13.5 54s-20.833 31.166 -35.5 41.499s-30 15.5 -46 15.5c-15.333 0 -29.833 -5.33301 -43.5 -16
s-24.667 -25 -33 -43s-12.5 -37 -12.5 -57c0 -22.667 4.33301 -44 13 -64s20.334 -35.833 35.001 -47.5s30.667 -17.5 48 -17.5c24.667 0 45.5 12.833 62.5 38.5zM322 -58.9961c-23.333 11.333 -61.668 18.666 -115.001 21.999
c-19.333 1.33301 -33.666 2.66602 -42.999 3.99902c-28.667 -19.333 -48.834 -38.166 -60.501 -56.499s-17.5 -40.166 -17.5 -65.499c0 -26.667 11.833 -49.167 35.5 -67.5s52.834 -27.5 87.501 -27.5c39.333 0 71 9 95 27c16.667 12.667 29.667 29.167 39 49.5
s14 41.833 14 64.5c0 22 -11.667 38.667 -35 50z" />
    <glyph glyph-name="h" unicode="h" horiz-adv-x="515" 
d="M19 8c0 4 1.66602 7.00098 4.99902 9.00098s9.33301 4.33301 18 7c13.333 4 23.666 8.83301 30.999 14.5s11.333 14.5 12 26.5v501c0 42.667 -14.667 66.667 -44 72c-6 1.33301 -9 6 -9 14c0 6 2.66699 10 8 12c52.667 16.667 89.667 29.667 111 39
c2.66699 1.33301 4.66699 2 6 2c4.66699 0 7 -2.33301 7 -7c0 -3.33301 -1.5 -13.5 -4.5 -30.5s-4.5 -52.167 -4.5 -105.5v-174c0 -10 0.5 -17.5 1.5 -22.5s2.83301 -9.83301 5.5 -14.5c56.667 42 107.334 63 152.001 63c32.667 0 59.834 -13 81.501 -39
s32.5 -58.333 32.5 -97v-210c0 -21.333 13.667 -36 41 -44c8 -2 13.833 -4.16699 17.5 -6.5s5.5 -5.5 5.5 -9.5c0 -7.33301 -6.66699 -11 -20 -11c-16.667 0 -30.667 1 -42 3c-13.333 1.33301 -25.333 2 -36 2s-22.667 -0.666992 -36 -2c-10.667 -2 -24.667 -3 -42 -3
c-13.333 0 -20 3.66699 -20 11c0 4 1.5 6.83301 4.5 8.5s9.16699 4.16699 18.5 7.5c12 4 21.5 9.33301 28.5 16s10.5 16 10.5 28v204c0 16 -4.66699 30.833 -14 44.5s-21.166 24.667 -35.499 33s-28.833 12.5 -43.5 12.5c-14 0 -29.167 -2 -45.5 -6
s-28.833 -9.33301 -37.5 -16c-10.667 -8.66699 -17.834 -17.834 -21.501 -27.501s-5.5 -24.5 -5.5 -44.5v-203c0.666992 -12 4.33398 -20.833 11.001 -26.5s16 -10.5 28 -14.5c7.33301 -2 12.833 -4.16699 16.5 -6.5s5.5 -5.5 5.5 -9.5s-1.5 -6.83301 -4.5 -8.5
s-8.16699 -2.5 -15.5 -2.5c-17.333 0 -31 1 -41 3c-12 1.33301 -23.667 2 -35 2c-10.667 0 -23.334 -0.666992 -38.001 -2c-10.667 -2 -25 -3 -43 -3c-13.333 0 -20 3.66699 -20 11z" />
    <glyph glyph-name="i" unicode="i" horiz-adv-x="245" 
d="M24 8c0 4.66699 1.83496 8 5.50195 10s9.5 4 17.5 6c15.333 4 26.333 8.5 33 13.5s10 13.167 10 24.5v217c0 44 -15 68.333 -45 73c-6.66699 0.666992 -10 5 -10 13c0 7.33301 3 11.333 9 12c40.667 9.33301 75.667 26 105 50c6 4.66699 10.667 7 14 7
c4 0 6 -1.66699 6 -5c0 -7.33301 -1 -20 -3 -38c-0.666992 -8 -1.83398 -22.833 -3.50098 -44.5s-2.5 -39.167 -2.5 -52.5v-232c0 -10.667 3.5 -18.667 10.5 -24s17.833 -10 32.5 -14c8 -2 13.833 -4 17.5 -6s5.5 -5.33301 5.5 -10c0 -7.33301 -6.66699 -11 -20 -11
c-16.667 0 -30.667 1 -42 3c-14.667 1.33301 -27.667 2 -39 2c-10.667 0 -23.334 -0.666992 -38.001 -2c-10.667 -2 -25 -3 -43 -3c-13.333 0 -20 3.66699 -20 11zM88.502 530.5c-9.66699 9.66699 -14.5 21.5 -14.5 35.5c0 14.667 4.83301 26.834 14.5 36.501
s21.5 14.5 35.5 14.5c14.667 0 26.834 -4.83301 36.501 -14.5s14.5 -21.834 14.5 -36.501c0 -14 -4.83301 -25.833 -14.5 -35.5s-21.834 -14.5 -36.501 -14.5c-14 0 -25.833 4.83301 -35.5 14.5z" />
    <glyph glyph-name="j" unicode="j" horiz-adv-x="226" 
d="M-13 -284.5c-4.66699 1.66699 -6.99805 4.16699 -6.99805 7.5s1.33301 6.66602 4 9.99902s5 5.66602 7 6.99902c27.333 6.66699 49.333 27.667 66 63c21.333 44.667 32 133.334 32 266.001v210c0 42.667 -15.333 67 -46 73c-2.66699 0.666992 -4.66699 2.16699 -6 4.5
s-2 5.16602 -2 8.49902c0 2.66699 0.666992 5.16699 2 7.5s3 3.83301 5 4.5c19.333 4.66699 36.333 10.834 51 18.501s26.5 14.5 35.5 20.5s14.833 9.66699 17.5 11c8 4.66699 12.333 7 13 7c4.66699 0 7 -1.66699 7 -5c-4.66699 -48 -7 -99.333 -7 -154v-184
c0 -46 -1.83301 -89.167 -5.5 -129.5s-11.834 -78.166 -24.501 -113.499c-8 -22 -19.667 -43.5 -35 -64.5s-31.333 -38 -48 -51s-31.667 -19.5 -45 -19.5c-4.66699 0 -9.33398 0.833008 -14.001 2.5zM80.502 530.5c-9.66699 9.66699 -14.5 21.5 -14.5 35.5
c0 14.667 4.83301 26.834 14.5 36.501s21.5 14.5 35.5 14.5c14.667 0 26.834 -4.83301 36.501 -14.5s14.5 -21.834 14.5 -36.501c0 -14 -4.83301 -25.833 -14.5 -35.5s-21.834 -14.5 -36.501 -14.5c-14 0 -25.833 4.83301 -35.5 14.5z" />
    <glyph glyph-name="k" unicode="k" horiz-adv-x="469" 
d="M19 8c0 4 1.50098 6.83691 4.50098 8.50391s6.33301 3.16699 10 4.5s6.5 2.33301 8.5 3c13.333 4 23.833 8.83301 31.5 14.5s11.5 14.5 11.5 26.5v501c0 23.333 -3.33301 40.333 -10 51s-18.334 18 -35.001 22c-6 1.33301 -9 5.66602 -9 12.999
c0 6.66699 2.66699 10.667 8 12c22.667 5.33301 41.5 10.666 56.5 15.999s32.833 12.666 53.5 21.999c4 2 7 3 9 3c4 0 6 -3 6 -9c0 -4.66699 -1.5 -18.167 -4.5 -40.5s-4.5 -53.5 -4.5 -93.5v-328c0 -6 1.66699 -9 5 -9c8.66699 0 20.667 6.66699 36 20
c45.333 39.333 80.666 73.666 105.999 102.999c6 6.66699 9 11.667 9 15c0 6 -8.66699 11 -26 15c-4.66699 1.33301 -7.83398 2.66602 -9.50098 3.99902s-2.5 3.33301 -2.5 6c0 3.33301 2 6.16602 6 8.49902s9.33301 3.5 16 3.5h49c9.33301 0 28 2.33301 56 7
c15.333 3.33301 27 5 35 5c9.33301 0 14 -3.33301 14 -10c0 -7.33301 -8.33301 -13.333 -25 -18c-18.667 -5.33301 -40.667 -15.666 -66 -30.999c-6 -4 -22.5 -17.167 -49.5 -39.5l-78.5 -66.5c-4 -4 -6 -7.33301 -6 -10s1 -5 3 -7c22.667 -28 49.167 -58 79.5 -90
s52.833 -54.667 67.5 -68c10 -10 22.167 -19.167 36.5 -27.5s27.166 -14.5 38.499 -18.5c2.66699 -0.666992 6.83398 -2 12.501 -4s10 -4 13 -6s4.5 -4.66699 4.5 -8c0 -7.33301 -6.66699 -11 -20 -11l-81 1c-45.333 1.33301 -80.666 2 -105.999 2c-12 0 -18 3 -18 9
c0 6.66699 5.66699 12 17 16c8.66699 2.66699 15.334 5.83398 20.001 9.50098s7 8.16699 7 13.5c0 3.33301 -2.33301 8 -7 14l-121 137c-4 4.66699 -7.33301 7 -10 7c-3.33301 0 -5 -2.33301 -5 -7c-0.666992 -12.667 -1 -34 -1 -64c0 -31.333 0.333008 -54.666 1 -69.999
c0 -12.667 3 -21.834 9 -27.501s14.667 -10.167 26 -13.5c2 -0.666992 5.16699 -1.66699 9.5 -3s7.66602 -3 9.99902 -5s3.5 -4.66699 3.5 -8c0 -4 -2.66699 -6.83301 -8 -8.5s-10.333 -2.5 -15 -2.5c-16.667 0 -29 1 -37 3c-10.667 1.33301 -21.667 2 -33 2
s-23.666 -0.666992 -36.999 -2c-10 -2 -23.667 -3 -41 -3c-15.333 0 -23 3.66699 -23 11z" />
    <glyph glyph-name="l" unicode="l" horiz-adv-x="240" 
d="M19 6c0 4.66699 1.83398 8.16797 5.50098 10.501s9.5 4.83301 17.5 7.5c14.667 4.66699 25.5 9.16699 32.5 13.5s10.5 12.5 10.5 24.5v504c0 42 -15.333 66.333 -46 73c-2.66699 0.666992 -4.66699 2.16699 -6 4.5s-2 5.16602 -2 8.49902c0 6.66699 2.33301 10.667 7 12
c26 6 55.667 16 89 30l24 9c2.66699 1.33301 4.66699 2 6 2s2.5 -0.833008 3.5 -2.5s1.5 -3.16699 1.5 -4.5c0 -4 -1.16699 -16.667 -3.5 -38s-3.5 -54 -3.5 -98v-500c0 -12 3.5 -20.167 10.5 -24.5s17.833 -8.83301 32.5 -13.5c8 -2.66699 13.833 -5.16699 17.5 -7.5
s5.5 -5.83301 5.5 -10.5c0 -6 -6.66699 -9 -20 -9c-17.333 0 -31.666 1 -42.999 3c-14.667 1.33301 -27.334 2 -38.001 2s-23.334 -0.666992 -38.001 -2c-10.667 -2 -25 -3 -43 -3c-13.333 0 -20 3 -20 9z" />
    <glyph glyph-name="m" unicode="m" horiz-adv-x="778" 
d="M24 8c0 4 1.83594 7.00098 5.50293 9.00098s9.5 4.33301 17.5 7c14.667 4.66699 25.5 9.16699 32.5 13.5s10.5 12.5 10.5 24.5v215c0 21.333 -2.5 38 -7.5 50s-15.167 19.333 -30.5 22c-6 1.33301 -9 5.66602 -9 12.999c0 6.66699 2.66699 10.667 8 12
c18 4.66699 32.333 9.5 43 14.5s23 12.5 37 22.5l22 15c0.666992 0 1.83398 0.666992 3.50098 2s3.5 2 5.5 2c1.33301 0 2.66602 -0.666992 3.99902 -2s2 -3 2 -5l-2 -21c-0.666992 -5.33301 -1.33398 -11.833 -2.00098 -19.5s-1 -15.5 -1 -23.5
c0 -6.66699 0.666992 -10.667 2 -12h2c46 44.667 98 67 156 67c24.667 0 45 -5.33301 61 -16s29 -28.334 39 -53.001h3c52 46 106.333 69 163 69c30.667 0 55 -13.833 73 -41.5s27 -60.167 27 -97.5v-213c0 -12 3.5 -20.167 10.5 -24.5s17.833 -8.83301 32.5 -13.5
c8 -2.66699 13.833 -5 17.5 -7s5.5 -5 5.5 -9s-1.5 -6.83301 -4.5 -8.5s-8.16699 -2.5 -15.5 -2.5c-18 0 -32 1 -42 3c-13.333 1.33301 -25.666 2 -36.999 2c-12 0 -24.667 -0.666992 -38 -2c-12 -2 -27 -3 -45 -3c-13.333 0 -20 3.66699 -20 11c0 4.66699 1.83301 8 5.5 10
s9.5 4 17.5 6c14 3.33301 24.667 7.5 32 12.5s11 13.5 11 25.5v210c0 24.667 -8 46.667 -24 66s-34.667 29 -56 29c-35.333 0 -64.333 -9 -87 -27c-18.667 -14.667 -28 -38.667 -28 -72v-206c0 -12 4 -20.5 12 -25.5s19 -9.16699 33 -12.5
c15.333 -3.33301 23 -8.66602 23 -15.999s-6.66699 -11 -20 -11c-18 0 -32.667 1 -44 3c-14.667 1.33301 -27.334 2 -38.001 2c-12 0 -24.667 -0.666992 -38 -2c-12 -2 -27 -3 -45 -3c-13.333 0 -20 3.66699 -20 11c0 4 1.5 6.83301 4.5 8.5s6.33301 3.16699 10 4.5
s6.5 2.33301 8.5 3c15.333 4.66699 26.5 9.16699 33.5 13.5s10.5 12.5 10.5 24.5v210c0 24.667 -8 46.667 -24 66s-34.667 29 -56 29c-35.333 0 -64.333 -9 -87 -27c-18 -13.333 -27 -37.333 -27 -72v-206c0 -12 3.5 -20.167 10.5 -24.5s17.833 -8.83301 32.5 -13.5
c2 -0.666992 5.16699 -1.66699 9.5 -3s7.66602 -3 9.99902 -5s3.5 -4.66699 3.5 -8c0 -7.33301 -6.66699 -11 -20 -11c-17.333 0 -31.666 1 -42.999 3c-14.667 1.33301 -27.334 2 -38.001 2s-23.334 -0.666992 -38.001 -2c-10.667 -2 -25 -3 -43 -3
c-13.333 0 -20 3.66699 -20 11z" />
    <glyph glyph-name="n" unicode="n" horiz-adv-x="528" 
d="M24 8c0 4.66699 1.66895 7.83105 5.00195 9.49805s9.33301 3.83398 18 6.50098c14 3.33301 24.667 7.5 32 12.5s11 13.5 11 25.5v215c0 21.333 -2.33301 37.666 -7 48.999s-14.667 19 -30 23c-6.66699 2 -10 6.33301 -10 13c0 7.33301 3 11.333 9 12
c20.667 5.33301 38.167 12 52.5 20s30.166 18.333 47.499 31c4.66699 3.33301 8.33398 5 11.001 5c3.33301 0 5 -2.33301 5 -7l-2 -21c-0.666992 -5.33301 -1.33398 -11.833 -2.00098 -19.5s-1 -15.5 -1 -23.5c0 -6.66699 0.666992 -10.667 2 -12c24 22.667 49 39.5 75 50.5
s54.667 16.5 86 16.5c32 0 58.833 -13.333 80.5 -40s32.5 -59.667 32.5 -99v-213c0 -12 3.5 -20.167 10.5 -24.5s17.833 -8.83301 32.5 -13.5c8 -2.66699 13.833 -5.16699 17.5 -7.5s5.5 -5.83301 5.5 -10.5c0 -6 -6.66699 -9 -20 -9c-18 0 -32.333 1 -43 3
c-13.333 1.33301 -25.666 2 -36.999 2c-10.667 0 -23.334 -0.666992 -38.001 -2c-10.667 -2 -25.334 -3 -44.001 -3c-13.333 0 -20 3 -20 9c0 4.66699 1.83301 8.16699 5.5 10.5s9.5 4.83301 17.5 7.5c14.667 4.66699 25.5 9.16699 32.5 13.5s10.5 12.5 10.5 24.5v210
c0 28.667 -8.16699 51.334 -24.5 68.001s-38.166 25.334 -65.499 26.001c-41.333 0 -78.333 -13.333 -111 -40c-5.33301 -5.33301 -8 -13 -8 -23v-241c0 -12 3.66699 -20.5 11 -25.5s18 -9.16699 32 -12.5c8 -2 13.833 -4.16699 17.5 -6.5s5.5 -5.5 5.5 -9.5
c0 -7.33301 -6.66699 -11 -20 -11c-17.333 0 -31.666 1 -42.999 3c-14.667 1.33301 -27.334 2 -38.001 2s-23.334 -0.666992 -38.001 -2c-10.667 -2 -25 -3 -43 -3c-13.333 0 -20 3.66699 -20 11z" />
    <glyph glyph-name="o" unicode="o" horiz-adv-x="495" 
d="M133.5 12c-30.333 17.333 -54.333 41.333 -72 72s-26.5 65 -26.5 103c0 36.667 9.83301 72.667 29.5 108s46.334 64 80.001 86s70.167 33 109.5 33c38 0 72.667 -9.16699 104 -27.5s56.166 -43 74.499 -74s27.5 -64.167 27.5 -99.5c0 -40 -8.66699 -77.333 -26 -112
s-43 -62.5 -77 -83.5s-75 -31.5 -123 -31.5c-36.667 0 -70.167 8.66699 -100.5 26zM358 71c13.333 26 19.999 65.332 19.999 117.999c0 32 -6 63 -18 93s-28.667 54.333 -50 73s-45.666 28 -72.999 28c-19.333 0 -36 -3 -50 -9s-26.667 -16.333 -38 -31
c-12 -15.333 -20.333 -34.166 -25 -56.499s-7 -47.833 -7 -76.5c0 -33.333 6 -64.833 18 -94.5s28.5 -53.667 49.5 -72s44.5 -27.5 70.5 -27.5c50 0 84.333 18.333 103 55z" />
    <glyph glyph-name="p" unicode="p" horiz-adv-x="519" 
d="M19 -276c0 4.66699 1.83789 8.16797 5.50488 10.501s9.5 4.83301 17.5 7.5c14.667 4.66699 25.5 9.16699 32.5 13.5s10.5 12.5 10.5 24.5v507c0 11.333 -4 25.5 -12 42.5s-19.333 27.167 -34 30.5c-2.66699 0.666992 -4.66699 2.16699 -6 4.5s-2 5.16602 -2 8.49902
c0 6.66699 2.33301 10.667 7 12c29.333 6.66699 55 14.5 77 23.5s35 14.5 39 16.5l2 1c1.33301 0 2.66602 -1 3.99902 -3s2 -4 2 -6l-2 -26c-2 -12 -3 -23.333 -3 -34c0 -5.33301 0.333008 -8.33301 1 -9c7.33301 7.33301 20.166 16.166 38.499 26.499
s38.666 19.5 60.999 27.5s43.166 12 62.499 12c32.667 0 61.5 -9 86.5 -27s44.167 -41.5 57.5 -70.5s20 -59.5 20 -91.5c0 -39.333 -10 -77.5 -30 -114.5s-47.333 -67 -82 -90s-72.334 -34.5 -113.001 -34.5c-14.667 0 -32.667 3.16699 -54 9.5s-36.666 13.833 -45.999 22.5
c-1.33301 0 -2.33301 -6.66699 -3 -20s-1 -23.666 -1 -30.999v-187c0 -10 4.33301 -17.5 13 -22.5s17.5 -8.66699 26.5 -11s15.167 -3.83301 18.5 -4.5c8 -2.66699 13.833 -5.16699 17.5 -7.5s5.5 -5.83301 5.5 -10.5c0 -6 -7.33301 -9 -22 -9c-18 0 -34.667 1 -50 3
c-17.333 1.33301 -32 2 -44 2c-10.667 0 -23.334 -0.666992 -38.001 -2c-10.667 -2 -24.667 -3 -42 -3c-14 0 -21 3 -21 9zM328.505 34.501c20.333 11.667 38 30.832 53 57.499s22.5 60.334 22.5 101.001c0 67.333 -14.5 113.5 -43.5 138.5s-59.833 37.5 -92.5 37.5
c-14.667 0 -30.667 -3.16699 -48 -9.5s-32 -13.833 -44 -22.5s-18 -15.334 -18 -20.001c0 -30 -0.666992 -65 -2 -105c-0.666992 -13.333 -1 -28.666 -1 -45.999c0 -26 6 -50.5 18 -73.5s27.333 -41.333 46 -55s37 -20.5 55 -20.5c16 0 34.167 5.83301 54.5 17.5z" />
    <glyph glyph-name="q" unicode="q" horiz-adv-x="522" 
d="M311 -276c0 4.66699 1.83398 8.16602 5.50098 10.499s9.5 4.83301 17.5 7.5c14.667 4.66699 25.5 9.16699 32.5 13.5s10.5 12.5 10.5 24.5v233c0 20 -2 30 -6 30h-4c-2 0 -3.66699 -0.666992 -5 -2c-13.333 -12 -32 -24.167 -56 -36.5s-47.667 -18.5 -71 -18.5
c-35.333 0 -68.333 7.5 -99 22.5s-55.167 37 -73.5 66s-27.5 63.5 -27.5 103.5c0 46.667 10.333 87.834 31 123.501s49.667 63.334 87 83.001s80.333 29.5 129 29.5c35.333 0 65 -3.5 89 -10.5s37 -10.833 39 -11.5c6.66699 0 11.667 1.83301 15 5.5s7 10.167 11 19.5
c2.66699 2.66699 5 4 7 4c3.33301 0 6.83301 -1 10.5 -3s5.5 -4.33301 5.5 -7c0 -4.66699 -1 -12 -3 -22c-6 -32.667 -9 -64 -9 -94v-515c0 -10.667 3.83301 -18.334 11.5 -23.001s15.667 -8.16699 24 -10.5s13.833 -3.83301 16.5 -4.5
c8 -2.66699 13.833 -5.16699 17.5 -7.5s5.5 -5.83301 5.5 -10.5c0 -6 -6.66699 -9 -20 -9c-18 0 -34 1 -48 3c-16 1.33301 -30 2 -42 2c-10.667 0 -23.334 -0.666992 -38.001 -2c-10.667 -2 -25 -3 -43 -3c-13.333 0 -20 3 -20 9zM333.501 51.499
c20.333 8.33301 35.167 17.834 44.5 28.501c0 113.333 -0.333008 178.333 -1 195c-1.33301 30 -13.5 55.333 -36.5 76s-50.833 31 -83.5 31c-24.667 0 -47.667 -7 -69 -21s-38.5 -34.333 -51.5 -61s-19.5 -58.334 -19.5 -95.001c0 -41.333 8.16699 -74.333 24.5 -99
s36.333 -42 60 -52s47.167 -15 70.5 -15c20.667 0 41.167 4.16699 61.5 12.5z" />
    <glyph glyph-name="r" unicode="r" horiz-adv-x="334" 
d="M29 8c0 4.66699 1.66406 7.83203 4.99707 9.49902s9.33301 3.83398 18 6.50098c25.333 6 38 18.667 38 38v215c0 20 -3 36.167 -9 48.5s-16.667 20.166 -32 23.499c-2.66699 0.666992 -5 2.33398 -7 5.00098s-3 5.33398 -3 8.00098s1 5.16699 3 7.5s4 3.83301 6 4.5
c26.667 8.66699 59.667 25 99 49c7.33301 4.66699 12.333 7 15 7c3.33301 0 5 -2.33301 5 -7c0 -18 -1 -43 -3 -75c0 -1.33301 0.666992 -2 2 -2c16.667 20 35.334 36.333 56.001 49s40.334 19 59.001 19c14 0 25.5 -3 34.5 -9s13.5 -13.667 13.5 -23
c0 -10.667 -4.16699 -22 -12.5 -34s-17.166 -18 -26.499 -18c-6.66699 0 -16 3 -28 9c-2 0.666992 -6.5 2.33398 -13.5 5.00098s-13.167 4 -18.5 4c-19.333 0 -35.666 -6.33301 -48.999 -19s-20 -34.334 -20 -65.001v-202c0 -8.66699 4.33301 -15.834 13 -21.501
s22 -11.167 40 -16.5c8 -2.66699 13.833 -5 17.5 -7s5.5 -5 5.5 -9c0 -7.33301 -6.66699 -11 -20 -11c-18 0 -33.667 1 -47 3c-16 1.33301 -29.333 2 -40 2s-23.334 -0.666992 -38.001 -2c-10.667 -2 -25 -3 -43 -3c-13.333 0 -20 3.66699 -20 11z" />
    <glyph glyph-name="s" unicode="s" horiz-adv-x="323" 
d="M86 -4.5c-18 6.33301 -33.333 15.166 -46 26.499c-5.33301 10.667 -9 37.334 -11 80.001c0 6 4.33301 9 13 9c7.33301 0 11.333 -2.33301 12 -7c8 -30.667 21.167 -53.5 39.5 -68.5s38.166 -22.5 59.499 -22.5c19.333 0 35.833 6.5 49.5 19.5s20.5 29.167 20.5 48.5
c0 17.333 -5.83301 32.5 -17.5 45.5s-32.834 29.167 -63.501 48.5c-34.667 21.333 -59.167 41.166 -73.5 59.499s-21.5 39.833 -21.5 64.5c0 33.333 11.667 60.833 35 82.5s56.666 32.5 99.999 32.5c18.667 0 34.834 -1.83301 48.501 -5.5s24.167 -8.16699 31.5 -13.5
c5.33301 -7.33301 9.83301 -18.833 13.5 -34.5s5.5 -30.5 5.5 -44.5c0 -4.66699 -3.33301 -7 -10 -7c-4 0 -8 0.833008 -12 2.5s-6.33301 3.83398 -7 6.50098c-9.33301 22.667 -20.5 39.667 -33.5 51s-28.833 17 -47.5 17c-17.333 0 -32.333 -5.33301 -45 -16
s-19 -25 -19 -43c0 -16 4.83301 -29.833 14.5 -41.5s27.834 -25.167 54.501 -40.5c42 -24 71.667 -45.5 89 -64.5s26 -43.167 26 -72.5c0 -36 -13.667 -65.333 -41 -88s-62.666 -34 -105.999 -34c-20.667 0 -40 3.16699 -58 9.5z" />
    <glyph glyph-name="t" unicode="t" horiz-adv-x="314" 
d="M112 16.5c-18 20.333 -26.999 49.835 -26.999 88.502v232c0 6 -2.16699 10 -6.5 12s-12.833 3 -25.5 3h-6c-3.33301 0 -6.16602 2 -8.49902 6s-3.5 8.66699 -3.5 14c0 1.33301 0.833008 3.16602 2.5 5.49902s3.16699 4.16602 4.5 5.49902c36 25.333 65.667 52 89 80
c2.66699 3.33301 5.33398 6.16602 8.00098 8.49902s5.66699 3.5 9 3.5c9.33301 0 13.666 -3.66699 12.999 -11l-5 -45v-4c0 -6 2 -10 6 -12s10 -3 18 -3h114c2.66699 0 5 -2.16699 7 -6.5s3 -9.5 3 -15.5s-1 -11.833 -3 -17.5s-4.33301 -8.5 -7 -8.5h-99
c-18 0 -29.167 -1.33301 -33.5 -4s-6.5 -10.667 -6.5 -24v-197c0 -27.333 5.66699 -48.5 17 -63.5s27.666 -22.5 48.999 -22.5c18.667 0 33.5 1.33301 44.5 4s20.833 7.33398 29.5 14.001l4 2c4.66699 0 7 -4.66699 7 -14c0 -4 -6 -11.167 -18 -21.5
s-26.833 -19.5 -44.5 -27.5s-35.834 -12 -54.501 -12c-33.333 0 -59 10.167 -77 30.5z" />
    <glyph glyph-name="u" unicode="u" horiz-adv-x="527" 
d="M359 -11l2.00293 27.001c2 13.333 3 25 3 35v6c-25.333 -25.333 -51.333 -43.5 -78 -54.5s-55.667 -16.5 -87 -16.5c-34 0 -61.5 10.333 -82.5 31s-31.5 50 -31.5 88v203c0 14.667 -3.33301 26.334 -10 35.001s-17.667 16 -33 22c-8.66699 2.66699 -13 8 -13 16
c0 9.33301 5 14.666 15 15.999c20.667 1.33301 37 3 49 5s28.667 5.66699 50 11l8 1c7.33301 0 10.666 -4.66699 9.99902 -14c-4 -30.667 -6 -56.334 -6 -77.001v-195c0 -24 8.66699 -45.167 26 -63.5s36.666 -27.5 57.999 -27.5c20 0 36.167 1.16699 48.5 3.5
s24.166 7.83301 35.499 16.5c12 8.66699 22.5 18.834 31.5 30.501s13.5 26.5 13.5 44.5v183c0 18 -7.5 30.833 -22.5 38.5s-29.833 11.5 -44.5 11.5c-14 0 -21 5.66699 -21 17c0 10 7 15 21 15c28.667 0.666992 51.5 2.16699 68.5 4.5s35.167 6.16602 54.5 11.499
c4 1.33301 7.33301 2 10 2c3.33301 0 6.33301 -1 9 -3s4 -4.66699 4 -8l-2 -9c-1.33301 -7.33301 -2.83301 -17.833 -4.5 -31.5s-2.5 -26.167 -2.5 -37.5v-231c0 -33.333 6 -50 18 -50l23 2l23 1c10 0 15 -4.33301 15 -13c0 -5.33301 -1.16699 -8.83301 -3.5 -10.5
s-5.83301 -2.83398 -10.5 -3.50098c-22.667 -3.33301 -42.667 -7.66602 -60 -12.999s-36.333 -12.333 -57 -21c-8 -4 -14.667 -6 -20 -6c-4.66699 0 -7 2.66699 -7 8z" />
    <glyph glyph-name="v" unicode="v" horiz-adv-x="438" 
d="M196 17c-3.33301 6.66699 -8.66699 21.667 -16 45l-9 25c-8 22 -27 70 -57 144l-40 98c-4.66699 12 -11.834 22.833 -21.501 32.5s-19.5 15.834 -29.5 18.501c-6.66699 2.66699 -11.334 5 -14.001 7s-4 5 -4 9c0 6 6.66699 9 20 9c17.333 0 30.333 -1 39 -3
c10.667 -1.33301 22 -2 34 -2c11.333 0 23 0.666992 35 2c10 2 23.333 3 40 3c13.333 0 20 -3 20 -9c0 -4.66699 -2 -8.16699 -6 -10.5s-9.66699 -4.83301 -17 -7.5c-6.66699 -2.66699 -11.667 -7.66699 -15 -15s-5 -16 -5 -26c0 -10.667 1.33301 -19.667 4 -27l79 -210
c1.33301 -0.666992 2.33301 -0.666992 3 0l76 195c5.33301 14 8 27.667 8 41c0 12.667 -2 21.834 -6 27.501s-10.667 10.5 -20 14.5c-9.33301 3.33301 -15.5 6.16602 -18.5 8.49902s-4.5 5.5 -4.5 9.5c0 6 6.66699 9 20 9c2.66699 0 10 -0.666992 22 -2c26 -2 43 -3 51 -3
s21 1 39 3c8 1.33301 14.667 2 20 2c13.333 0 20 -3 20 -9c0 -4 -1.66699 -7.33301 -5 -10s-9.33301 -5.33398 -18 -8.00098c-10.667 -3.33301 -22 -11.333 -34 -24s-21.333 -27 -28 -43l-78 -188l-20.5 -52.5c-8.33301 -21.667 -14.166 -37.167 -17.499 -46.5
c-1.33301 -4 -4.66602 -11.5 -9.99902 -22.5s-9.33301 -18.5 -12 -22.5h-6c-3.33301 0 -9.33301 12.667 -18 38z" />
    <glyph glyph-name="w" unicode="w" horiz-adv-x="685" 
d="M219 -16l-139.002 345.001c-4.66699 12.667 -11.834 23.167 -21.501 31.5s-19.834 14.166 -30.501 17.499c-8 2.66699 -13.833 5.16699 -17.5 7.5s-5.5 5.83301 -5.5 10.5c0 6 6.66699 9 20 9c8 0 20 -0.666992 36 -2c12 -2 24.333 -3 37 -3c14 0 28 1 42 3
c17.333 1.33301 31 2 41 2c4.66699 0 9.16699 -0.666992 13.5 -2s6.5 -3.66602 6.5 -6.99902c0 -4.66699 -1.83301 -8.16699 -5.5 -10.5s-9.5 -4.83301 -17.5 -7.5c-6.66699 -2 -11.834 -6.66699 -15.501 -14s-5.5 -16 -5.5 -26c0 -8.66699 1.66699 -17.334 5 -26.001
l78 -201c0.666992 -2.66699 2.33398 -4 5.00098 -4s4.33398 1.33301 5.00098 4l68 162c5.33301 12.667 8 28.667 8 48c0 13.333 -5 24.833 -15 34.5s-22 17.167 -36 22.5c-8 2.66699 -13.833 5.16699 -17.5 7.5s-5.5 5.83301 -5.5 10.5c0 6 6.66699 9 20 9
c4 0 12 -0.666992 24 -2c26 -2 43 -3 51 -3c5.33301 0 23 1 53 3c14.667 1.33301 25 2 31 2c13.333 0 20 -3 20 -9c0 -4.66699 -1.83301 -8.16699 -5.5 -10.5s-9.5 -4.83301 -17.5 -7.5c-10.667 -3.33301 -19 -7.5 -25 -12.5s-9 -12.833 -9 -23.5
c0 -8.66699 2.33301 -18.667 7 -30l75 -193c3.33301 -7.33301 6 -11 8 -11c2.66699 0 5.33398 3.33301 8.00098 10l76 177c4.66699 10 7 23 7 39c0 10.667 -3.66699 20 -11 28s-15.333 13.333 -24 16c-8 2.66699 -13.833 5.16699 -17.5 7.5s-5.5 5.83301 -5.5 10.5
c0 6 6.66699 9 20 9c8.66699 0 19.667 -0.666992 33 -2c10.667 -2 24.667 -3 42 -3c10.667 0 23 1 37 3c8 1.33301 15 2 21 2c13.333 0 20 -3 20 -9c0 -4.66699 -1.83301 -8.16699 -5.5 -10.5s-9.5 -4.83301 -17.5 -7.5c-9.33301 -2.66699 -18.666 -10.167 -27.999 -22.5
s-17.666 -26.833 -24.999 -43.5l-137 -328c-2 -4.66699 -5 -7 -9 -7c-2.66699 0 -5.33398 2.33301 -8.00098 7l-104 258c-2 5.33301 -4 8.33301 -6 9c-2 0 -4.33301 -3.33301 -7 -10l-109 -257c-2 -4.66699 -4.66699 -7 -8 -7s-5.66602 2.33301 -6.99902 7z" />
    <glyph glyph-name="x" unicode="x" horiz-adv-x="430" 
d="M10 5c0 4.66699 2.00391 8.33496 6.00391 11.002s9.66699 5 17 7c11.333 3.33301 22 9.16602 32 17.499s21.667 21.5 35 39.5l77 107c4 4.66699 6 9 6 13c0 3.33301 -1.33301 6.66602 -4 9.99902l-82 125c-8 13.333 -15.167 23 -21.5 29s-14.5 10.333 -24.5 13
c-7.33301 2 -13 4.33301 -17 7s-6 6.33398 -6 11.001c0 6 6.66699 9 20 9c14 0 26.333 -0.666992 37 -2c13.333 -1.33301 28.333 -2 45 -2l26 1c4.66699 0.666992 13 1 25 1h3c13.333 0 20 -3 20 -9c0 -3.33301 -1.5 -6 -4.5 -8s-7.5 -4 -13.5 -6
c-6.66699 -2 -11.834 -4.16699 -15.501 -6.5s-5.5 -5.83301 -5.5 -10.5c0 -7.33301 4.33301 -18 13 -32l46 -69c2.66699 -4.66699 5.66699 -4.66699 9 0l51 77c5.33301 7.33301 8 14.666 8 21.999c0 8 -4.33301 13.333 -13 16c-8 2.66699 -13.833 5.16699 -17.5 7.5
s-5.5 5.83301 -5.5 10.5c0 6 6.66699 9 20 9c3.33301 0 11.166 -0.5 23.499 -1.5s22.166 -1.5 29.499 -1.5c14.667 0 27.667 0.833008 39 2.5s19.333 2.5 24 2.5c13.333 0 20 -3 20 -9c0 -4.66699 -1.83301 -8.16699 -5.5 -10.5s-9.5 -4.83301 -17.5 -7.5
c-32 -9.33301 -55.667 -25 -71 -47l-63 -95c-2.66699 -4 -2.33398 -8.33301 0.999023 -13l97 -158c8 -12.667 15.667 -22 23 -28s16 -10.667 26 -14c7.33301 -2 13 -4.33301 17 -7s6 -6.33398 6 -11.001c0 -6 -6.66699 -9 -20 -9c-12.667 0 -25 0.666992 -37 2
c-13.333 1.33301 -29 2 -47 2l-37 -1c-8.66699 -0.666992 -20.667 -1 -36 -1s-23 3.33301 -23 10c0 5.33301 2 9.5 6 12.5s10.333 5.5 19 7.5c18.667 5.33301 28 13.333 28 24c0 5.33301 -2 11.333 -6 18l-59 96c-0.666992 0.666992 -1.66699 1 -3 1
s-2.33301 -0.333008 -3 -1l-66 -99c-3.33301 -4.66699 -5 -11 -5 -19c0 -4.66699 1.16699 -9.16699 3.5 -13.5s5.83301 -7.16602 10.5 -8.49902c8 -2.66699 13.833 -5.16699 17.5 -7.5s5.5 -5.83301 5.5 -10.5c0 -6 -6.66699 -9 -20 -9c-4 0 -11.167 0.333008 -21.5 1
s-21.833 1 -34.5 1c-8.66699 0 -24 -1 -46 -3c-9.33301 -1.33301 -16.333 -2 -21 -2c-13.333 0 -20 3 -20 9z" />
    <glyph glyph-name="y" unicode="y" horiz-adv-x="438" 
d="M27.5 -275c-9.66699 6.66699 -14.498 16.9971 -14.498 30.9971c0 12.667 3 23.334 9 32.001s14 13 24 13c5.33301 0 12.5 -1 21.5 -3s15.167 -3 18.5 -3c8 0 14.333 3.66699 19 11c12.667 19.333 26.667 44.833 42 76.5s29.666 65.5 42.999 101.5c2 6 3 13.667 3 23
c0 12 -1.33301 21.667 -4 29l-116 293c-11.333 27.333 -26.333 43.666 -45 48.999c-8 2.66699 -13.833 5.16699 -17.5 7.5s-5.5 5.83301 -5.5 10.5c0 6 6.66699 9 20 9c17.333 0 30.333 -1 39 -3c12 -1.33301 23.333 -2 34 -2c11.333 0 23 0.666992 35 2c10 2 23.667 3 41 3
c4.66699 0 9.16699 -1 13.5 -3s6.5 -4.66699 6.5 -8c0 -4.66699 -3.16699 -9 -9.5 -13s-12.833 -7 -19.5 -9c-7.33301 -2 -12.5 -5.5 -15.5 -10.5s-4.5 -12.167 -4.5 -21.5c0 -6 2.66699 -15.333 8 -28l81 -200c1.33301 -4 3.33301 -6 6 -6c2 0 3.66699 2 5 6l69 183
c2 4.66699 3.83301 10.834 5.5 18.501s2.5 13.834 2.5 18.501c0 11.333 -1.66699 19.833 -5 25.5s-8.33301 9.83398 -15 12.501c-19.333 8.66699 -29 16.667 -29 24c0 3.33301 2.16699 6 6.5 8s8.83301 3 13.5 3c3.33301 0 11 -0.666992 23 -2c24 -2 40 -3 48 -3
c9.33301 0 22 1 38 3c8 1.33301 15 2 21 2c13.333 0 20 -3 20 -9c0 -4.66699 -1.83301 -8.16699 -5.5 -10.5s-9.5 -4.83301 -17.5 -7.5c-10 -3.33301 -20.667 -11.333 -32 -24s-20.333 -27 -27 -43l-136 -324l-15 -37l-81 -194c-6 -13.333 -14.667 -23.5 -26 -30.5
s-24.333 -10.5 -39 -10.5s-26.834 3.33301 -36.501 10z" />
    <glyph glyph-name="z" unicode="z" horiz-adv-x="377" 
d="M30 1.5c-3.33301 4.33301 -4.99902 7.8291 -4.99902 10.4961c0 2 4.16699 9.5 12.5 22.5s16.5 24.833 24.5 35.5c66 94.667 129.667 190.667 191 288l2 5c0 3.33301 -3.66699 5 -11 5l-99 3c-8.66699 0.666992 -16.834 -1 -24.501 -5s-14.167 -8.66699 -19.5 -14
c-6 -6 -15.667 -18.333 -29 -37l-15 -21c-2 -2 -5 -3 -9 -3c-4.66699 0 -8.33398 1.16699 -11.001 3.5s-3.33398 5.5 -2.00098 9.5c4 11.333 8.16699 27 12.5 47s6.5 35.667 6.5 47c0 4.66699 1.83301 8.83398 5.5 12.501s6.83398 5.5 9.50098 5.5s7.66699 -3 15 -9
c4.66699 -4 19 -6 43 -6l38 1c63.333 0 125.333 1 186 3c2.66699 0 4.83398 -1.5 6.50098 -4.5s1.83398 -5.5 0.500977 -7.5c-17.333 -21.333 -30 -38 -38 -50l-195 -295c-1.33301 -2 -2 -4.33301 -2 -7s1 -4.66699 3 -6s4.66699 -2 8 -2h118c14.667 0 29.667 7.66699 45 23
c10 10 28.333 34.333 55 73c2 3.33301 5 5 9 5c3.33301 0 6.33301 -1.16699 9 -3.5s4 -5.16602 4 -8.49902s-3.83301 -19.166 -11.5 -47.499s-13.834 -50.166 -18.501 -65.499c-2 -9.33301 -7.33301 -14 -16 -14l-44 1c-50.667 2.66699 -105.667 4 -165 4
c-2.66699 0 -19 -1 -49 -3l-31 -2c-2.66699 0 -5.66699 2.16699 -9 6.5z" />
    <glyph glyph-name="braceleft" unicode="{" horiz-adv-x="376" 
d="M198 -116.5c-36.667 20.333 -55.0039 52.1641 -55.0039 95.4971c0 29.333 2.33301 61 7 95c4 36 6 63.667 6 83c0 27.333 -8.66699 50.833 -26 70.5s-37.666 32.167 -60.999 37.5c-4.66699 1.33301 -9 3.5 -13 6.5s-6 6.5 -6 10.5c0 3.33301 1.83301 6.83301 5.5 10.5
s8.83398 6.5 15.501 8.5c56.667 14.667 85 49 85 103c0 19.333 -2 47 -6 83c-4.66699 34 -7 65.667 -7 95c0 43.333 19 75.833 57 97.5s84 33.5 138 35.5c4.66699 0 8.83398 -1.33301 12.501 -4s5.5 -6.33398 5.5 -11.001c0 -8 -8.66699 -12.667 -26 -14
c-35.333 -4.66699 -61.166 -13.834 -77.499 -27.501s-24.5 -37.5 -24.5 -71.5c0 -19.333 1 -38.666 3 -57.999s3.33301 -31.333 4 -36c4 -34.667 6 -61 6 -79c0 -29.333 -12.667 -55.666 -38 -78.999s-52 -40.666 -80 -51.999c-2.66699 -1.33301 -2 -2.66602 2 -3.99902
c12.667 -3.33301 28.334 -11.666 47.001 -24.999s34.834 -29.5 48.501 -48.5s20.5 -38.5 20.5 -58.5c0 -18 -2 -44.333 -6 -79c-0.666992 -4.66699 -2 -16.667 -4 -36s-3 -38.666 -3 -57.999c0 -34.667 8 -59 24 -73s41 -22.667 75 -26c9.33301 -0.666992 16 -1.66699 20 -3
s6 -4.33301 6 -9s-1.83301 -8.5 -5.5 -11.5s-7.83398 -4.16699 -12.501 -3.5c-54.667 3.33301 -100.334 15.166 -137.001 35.499z" />
    <glyph glyph-name="bar" unicode="|" horiz-adv-x="260" 
d="M104 -284.5c-2.66699 3 -4 6.16797 -4 9.50098v951c0 9.33301 6 16.833 18 22.5s21.333 8.5 28 8.5c3.33301 0 6.5 -1.33301 9.5 -4s4.5 -5.66699 4.5 -9v-959c0 -8.66699 -5.66699 -14.834 -17 -18.501s-21.666 -5.5 -30.999 -5.5c-2.66699 0 -5.33398 1.5 -8.00098 4.5
z" />
    <glyph glyph-name="braceright" unicode="}" horiz-adv-x="376" 
d="M178 -116.5c36.667 20.333 55.0039 52.1641 55.0039 95.4971c0 29.333 -2.33301 61 -7 95c-4 36 -6 63.667 -6 83c0 27.333 8.66699 50.833 26 70.5s37.666 32.167 60.999 37.5c4.66699 1.33301 9 3.5 13 6.5s6 6.5 6 10.5c0 3.33301 -1.83301 6.83301 -5.5 10.5
s-8.83398 6.5 -15.501 8.5c-56.667 14.667 -85 49 -85 103c0 19.333 2 47 6 83c4.66699 34 7 65.667 7 95c0 43.333 -19 75.833 -57 97.5s-84 33.5 -138 35.5c-4.66699 0 -8.83398 -1.33301 -12.501 -4s-5.5 -6.33398 -5.5 -11.001c0 -8 8.66699 -12.667 26 -14
c35.333 -4.66699 61.166 -13.834 77.499 -27.501s24.5 -37.5 24.5 -71.5c0 -19.333 -1 -38.666 -3 -57.999s-3.33301 -31.333 -4 -36c-4 -34.667 -6 -61 -6 -79c0 -29.333 12.667 -55.666 38 -78.999s52 -40.666 80 -51.999c2.66699 -1.33301 2 -2.66602 -2 -3.99902
c-12.667 -3.33301 -28.334 -11.666 -47.001 -24.999s-34.834 -29.5 -48.501 -48.5s-20.5 -38.5 -20.5 -58.5c0 -18 2 -44.333 6 -79c0.666992 -4.66699 2 -16.667 4 -36s3 -38.666 3 -57.999c0 -34.667 -8 -59 -24 -73s-41 -22.667 -75 -26
c-9.33301 -0.666992 -16 -1.66699 -20 -3s-6 -4.33301 -6 -9s1.83301 -8.5 5.5 -11.5s7.83398 -4.16699 12.501 -3.5c54.667 3.33301 100.334 15.166 137.001 35.499z" />
    <glyph glyph-name="asciitilde" unicode="~" horiz-adv-x="500" 
d="M293.5 267.5c-13.667 5 -30.499 12.833 -50.499 23.5c-16.667 9.33301 -31.334 16.5 -44.001 21.5s-25.667 7.5 -39 7.5c-16.667 0 -31.5 -4.66699 -44.5 -14s-23.833 -18.5 -32.5 -27.5s-13.334 -13.5 -14.001 -13.5c-4 0 -8.16699 1.5 -12.5 4.5s-6.5 6.16699 -6.5 9.5
c0 10 5.5 23.333 16.5 40s25.833 31.167 44.5 43.5s38.667 18.5 60 18.5c15.333 0 29.5 -2.66699 42.5 -8s28.167 -13 45.5 -23c16.667 -10 30.834 -17.667 42.501 -23s23.5 -8 35.5 -8c14.667 0 28.667 5.16699 42 15.5s25 20.833 35 31.5s15.333 16 16 16
c3.33301 0 7.5 -1.83301 12.5 -5.5s7.5 -8.5 7.5 -14.5c0 -13.333 -6 -28 -18 -44s-26.833 -29.667 -44.5 -41s-34.5 -17 -50.5 -17c-15.333 0 -29.833 2.5 -43.5 7.5z" />
    <glyph glyph-name="uni00A0" unicode="&#xa0;" horiz-adv-x="200" 
 />
    <glyph glyph-name="exclamdown" unicode="&#xa1;" horiz-adv-x="250" 
d="M111 266.5c-2.66699 -5.66699 -4.66602 -15.833 -5.99902 -30.5c-6.66699 -61.333 -12.667 -127.5 -18 -198.5s-8 -121.5 -8 -151.5c0 -14.667 4.5 -27.5 13.5 -38.5s20.167 -16.5 33.5 -16.5s24.166 5.5 32.499 16.5s12.5 23.833 12.5 38.5
c0 44.667 -10 161.334 -30 350.001c-1.33301 11.333 -3.5 20.666 -6.5 27.999s-6.83301 11 -11.5 11c-5.33301 0 -9.33301 -2.83301 -12 -8.5zM82.501 476.501c-11.667 -11.667 -17.5 -25.834 -17.5 -42.501s5.83301 -30.834 17.5 -42.501s25.834 -17.5 42.501 -17.5
s30.834 5.83301 42.501 17.5s17.5 25.834 17.5 42.501s-5.83301 30.834 -17.5 42.501s-25.834 17.5 -42.501 17.5s-30.834 -5.83301 -42.501 -17.5z" />
    <glyph glyph-name="cent" unicode="&#xa2;" horiz-adv-x="422" 
d="M190 -9c-3.33301 2.66699 -4.66504 6.33496 -3.99805 11.002l8 76c-28 4.66699 -54.167 16.667 -78.5 36s-43.833 43.5 -58.5 72.5s-22 59.5 -22 91.5c0 37.333 8.66699 72.5 26 105.5s41.5 60.167 72.5 81.5s65.833 33.666 104.5 36.999l4 60
c0.666992 5.33301 3 9.5 7 12.5s9 4.5 15 4.5c4 0 7.33301 -1.83301 10 -5.5s3.66699 -7.5 3 -11.5l-4 -59c47.333 -2.66699 83 -18.667 107 -48c2.66699 -3.33301 4 -7.33301 4 -12c0 -6.66699 -4.33301 -14 -13 -22s-16.667 -12 -24 -12c-4.66699 0 -9 1 -13 3
s-6.66699 4.33301 -8 7c-7.33301 13.333 -15.5 24.166 -24.5 32.499s-19.833 14.166 -32.5 17.499l-34 -333c3.33301 -0.666992 8.33301 -1 15 -1c26 0 48.833 2.83301 68.5 8.5s35.167 17.167 46.5 34.5c2 3.33301 5 5 9 5c3.33301 0 6.33301 -1.16699 9 -3.5
s4 -5.16602 4 -8.49902c0 -2 -0.333008 -3.33301 -1 -4c-18.667 -30.667 -40.667 -53.167 -66 -67.5s-56 -22.166 -92 -23.499l-7 -74c-0.666992 -4.66699 -2.83398 -8.33398 -6.50098 -11.001s-7.83398 -4 -12.501 -4s-8.66699 1.33301 -12 4zM235.001 474.001
l-2 -0.00195312c-25.333 0 -48 -8 -68 -24s-35.5 -36.667 -46.5 -62s-16.5 -50.666 -16.5 -75.999c0 -42.667 8.83301 -78.667 26.5 -108s41.5 -49.666 71.5 -60.999z" />
    <glyph glyph-name="sterling" unicode="&#xa3;" horiz-adv-x="490" 
d="M464.5 150.5c7 -11 10.499 -24.1709 10.499 -39.5039c0 -23.333 -7.16699 -46.5 -21.5 -69.5s-33.333 -41.667 -57 -56s-49.5 -21.5 -77.5 -21.5c-28.667 0 -53.667 4.83301 -75 14.5s-48 25.5 -80 47.5c-10.667 7.33301 -22.667 14 -36 20s-22.666 9 -27.999 9
c-3.33301 0 -9.83301 -5.16699 -19.5 -15.5s-17.834 -21.5 -24.501 -33.5c-5.33301 -10 -12 -17.667 -20 -23s-15.667 -7.66602 -23 -6.99902c-6.66699 0 -12.167 2.66699 -16.5 8s-6.5 12.666 -6.5 21.999c0 20 9.33301 37.833 28 53.5s41.334 26.167 68.001 31.5
c2.66699 0.666992 4.83398 2.16699 6.50098 4.5s3.16699 4.83301 4.5 7.5c14 26.667 24.333 93.334 31 200.001l-83 -6c-3.33301 0 -6.5 1.33301 -9.5 4s-4.5 5.33398 -4.5 8.00098c0 4.66699 2.5 9.33398 7.5 14.001s10.5 7.33398 16.5 8.00098l75 5v5
c2.66699 48 12 93.833 28 137.5s40.167 79.667 72.5 108s72.166 42.5 119.499 42.5c31.333 0 55.833 -8.16699 73.5 -24.5s26.5 -34.833 26.5 -55.5c0 -16 -4 -29.667 -12 -41s-18.667 -17 -32 -17c-4.66699 0 -7.83398 1.16699 -9.50098 3.5s-2.5 5.83301 -2.5 10.5l1 22
c-0.666992 20 -6.83398 37.167 -18.501 51.5s-26.5 21.5 -44.5 21.5c-34 0 -59.667 -21 -77 -63s-29.666 -107 -36.999 -195l133 9c3.33301 0 6.33301 -1.33301 9 -4s4 -5.33398 4 -8.00098c0 -4 -3.33301 -8.5 -10 -13.5s-13.667 -7.83301 -21 -8.5l-118 -8
c-5.33301 -42.667 -16.5 -84.834 -33.5 -126.501s-32.5 -68.5 -46.5 -80.5c-2 -1.33301 -2.66699 -3.16602 -2 -5.49902s2.66699 -3.5 6 -3.5c24 0 45.5 -2.83301 64.5 -8.5s41.5 -13.834 67.5 -24.501c23.333 -9.33301 42.333 -16.333 57 -21s30.334 -7 47.001 -7
c18 0 32.333 4.33301 43 13s16 19.334 16 32.001c0 11.333 -3.33301 26.333 -10 45c-4 14.667 -6 23.334 -6 26.001c0 4.66699 1.66699 9 5 13s7.33301 6 12 6c12.667 0 22.5 -5.5 29.5 -16.5z" />
    <glyph glyph-name="currency" unicode="&#xa4;" horiz-adv-x="506" 
d="M50 67c-6.66699 6.66699 -10 13.334 -10 20.001c0 3.33301 1 6 3 8l57 57c-26 34 -39 73.333 -39 118s13 83.667 39 117l-57 57c-2 2 -3 4.33301 -3 7c0 6.66699 3.5 13.5 10.5 20.5s13.833 10.5 20.5 10.5c3.33301 0 6 -1 8 -3l55 -55c36 27.333 75.667 41 119 41
c45.333 0 84.666 -13.667 117.999 -41l56 56c2 2 4.66699 3 8 3c6 0 12.5 -3.33301 19.5 -10s10.5 -13.334 10.5 -20.001c0 -4 -1.33301 -7.33301 -4 -10l-55 -55c26 -34 39 -73.333 39 -118s-13 -84 -39 -118l57 -57c2 -2 3 -4.33301 3 -7
c0 -6.66699 -3.5 -13.5 -10.5 -20.5s-13.833 -10.5 -20.5 -10.5c-3.33301 0 -6 1 -8 3l-56 56c-33.333 -27.333 -72.666 -41 -117.999 -41s-84.666 13.667 -117.999 41l-57 -56c-2 -2 -4.66699 -3 -8 -3c-6.66699 0 -13.334 3.33301 -20.001 10zM324.5 144.5
c21.667 13 38.834 30.667 51.501 53s19 46.5 19 72.5s-6.33301 50.167 -19 72.5s-29.834 40 -51.501 53s-45.5 19.5 -71.5 19.5s-49.833 -6.5 -71.5 -19.5s-38.834 -30.667 -51.501 -53s-19 -46.5 -19 -72.5s6.33301 -50.167 19 -72.5s29.834 -40 51.501 -53
s45.5 -19.5 71.5 -19.5s49.833 6.5 71.5 19.5z" />
    <glyph glyph-name="yen" unicode="&#xa5;" horiz-adv-x="570" 
d="M153 6c0 4.66699 2.66602 8.33105 7.99902 10.998s13.666 5 24.999 7c52 9.33301 78 37.333 78 84l1 89h-126c-3.33301 0 -6.5 1.16699 -9.5 3.5s-4.5 5.16602 -4.5 8.49902c0 4.66699 2.5 9.66699 7.5 15s10.5 8 16.5 8h116v24c0 6.66699 -0.666992 14.667 -2 24h-124
c-3.33301 0 -6.5 1.33301 -9.5 4s-4.5 5.33398 -4.5 8.00098c0 4.66699 2.5 9.66699 7.5 15s10.5 8 16.5 8h106l-133 207c-17.333 26.667 -33.166 48.667 -47.499 66s-28.166 28 -41.499 32c-11.333 4 -19.666 7.66699 -24.999 11s-8 7 -8 11c0 7.33301 9.66699 11 29 11
l46 -1c29.333 -1.33301 53 -2 71 -2l48 1c8 0.666992 18.667 1 32 1c19.333 0 29 -3.66699 29 -11c0 -4 -2.33301 -7.33301 -7 -10s-13.334 -6 -26.001 -10c-18.667 -6.66699 -28 -17.667 -28 -33c0 -9.33301 3 -18.666 9 -27.999l93 -165
c8.66699 -14.667 15 -24.834 19 -30.501s7.66699 -8.5 11 -8.5s7 2.66699 11 8s10.667 15.666 20 30.999l37.5 58.5c19 29.667 34.167 56.5 45.5 80.5c4.66699 10 7 21.333 7 34s-2.66699 23.834 -8 33.501s-12.666 15.834 -21.999 18.501c-22 6 -33 12.667 -33 20
s9.66699 11 29 11l75 -1c15.333 0 35 0.666992 59 2l37 1c19.333 0 29 -3.66699 29 -11c0 -8.66699 -11 -15.334 -33 -20.001c-15.333 -3.33301 -32.166 -14.666 -50.499 -33.999s-34.833 -40 -49.5 -62l-68 -107l-44 -73c-10 -14.667 -16 -25 -18 -31h122
c3.33301 0 6.33301 -1.16699 9 -3.5s4 -4.83301 4 -7.5c0 -5.33301 -3.33301 -10.666 -10 -15.999s-13.667 -8 -21 -8h-109v-48h126c8.66699 0 13 -3.66699 13 -11c0 -5.33301 -3.33301 -10.666 -10 -15.999s-13.667 -8 -21 -8h-108v-89c0 -22.667 6.66699 -41.167 20 -55.5
s32.666 -23.833 57.999 -28.5c11.333 -2 19.666 -4.33301 24.999 -7s8 -6.33398 8 -11.001c0 -7.33301 -9.66699 -11 -29 -11c-24.667 0 -46 1 -64 3c-21.333 1.33301 -39 2 -53 2c-16.667 -0 -37 -0.666992 -61 -2c-20 -2 -42.333 -3 -67 -3c-19.333 0 -29 3.66699 -29 11z
" />
    <glyph glyph-name="brokenbar" unicode="&#xa6;" horiz-adv-x="260" 
d="M104 283.5c-2.66699 5 -3.99902 10.168 -3.99902 15.501v375c0 9.33301 6 16.833 18 22.5s21.333 8.5 28 8.5c3.33301 0 6.5 -1.33301 9.5 -4s4.5 -5.66699 4.5 -9v-395c0 -4.66699 -6.5 -9.33398 -19.5 -14.001s-22.5 -7 -28.5 -7c-2.66699 0 -5.33398 2.5 -8.00098 7.5
zM104.001 -285.499c-2.66699 3 -4 6.16797 -4 9.50098v432c0 4.66699 6.5 9.66699 19.5 15s21.833 8 26.5 8c3.33301 0 6.5 -2.33301 9.5 -7s4.5 -9.66699 4.5 -15v-423c0 -8.66699 -5.66699 -14.834 -17 -18.501s-21.666 -5.5 -30.999 -5.5
c-2.66699 0 -5.33398 1.5 -8.00098 4.5z" />
    <glyph glyph-name="section" unicode="&#xa7;" horiz-adv-x="400" 
d="M79 -139c-12 6 -17.9971 13.6689 -17.9971 23.002c0 6.66699 2.16699 15.167 6.5 25.5s11.5 19.166 21.5 26.499c2.66699 1.33301 4.66699 2 6 2c3.33301 0 8.66602 -2.66699 15.999 -8c8 -7.33301 18.5 -13.166 31.5 -17.499s25.5 -6.5 37.5 -6.5
c16.667 0 29.5 7.16699 38.5 21.5s13.5 34.5 13.5 60.5c0 19.333 -8 39.5 -24 60.5s-40 48.5 -72 82.5l-18 18c-31.333 32 -54.833 62.667 -70.5 92s-23.5 58.666 -23.5 87.999c0 41.333 5.5 75.833 16.5 103.5s27.5 54.5 49.5 80.5c8.66699 32.667 25.667 62 51 88
s54.666 39 87.999 39c12.667 0 26.167 -2 40.5 -6s24.166 -8.33301 29.499 -13c8 -6.66699 12 -12.667 12 -18c0 -2 -1.83301 -7 -5.5 -15s-8.5 -15.333 -14.5 -22s-12 -10 -18 -10c-4.66699 0 -9 2 -13 6c-25.333 22.667 -46 34 -62 34
c-18.667 0 -33.5 -6.16699 -44.5 -18.5s-16.5 -27.166 -16.5 -44.499c0 -18 9.66699 -40.167 29 -66.5s44.333 -53.5 75 -81.5c40 -36 67.5 -71 82.5 -105s22.5 -74.333 22.5 -121c0 -38 -7.5 -76.333 -22.5 -115s-35.5 -73.834 -61.5 -105.501s-54.333 -56.834 -85 -75.501
c-12 -7.33301 -30 -11 -54 -11c-17.333 0 -32 3 -44 9zM291.003 47.502c2.66699 0.333008 4.33398 1.5 5.00098 3.5c7.33301 28 11 52.333 11 73c0 33.333 -7.16699 63.666 -21.5 90.999s-37.166 57.333 -68.499 90c-35.333 36 -63 65.5 -83 88.5s-33.333 44.5 -40 64.5
c-0.666992 2.66699 -2.33398 3.83398 -5.00098 3.50098s-4.33398 -1.5 -5.00098 -3.5c-7.33301 -28 -11 -52.333 -11 -73c0 -33.333 7.16699 -63.666 21.5 -90.999s37.166 -57.333 68.499 -90c35.333 -36 63 -65.5 83 -88.5s33.333 -44.5 40 -64.5
c0.666992 -2.66699 2.33398 -3.83398 5.00098 -3.50098z" />
    <glyph glyph-name="dieresis" unicode="&#xa8;" horiz-adv-x="300" 
d="M27.5 523.5c-10.333 10.333 -15.5 21.833 -15.5 34.5s5.16699 24.167 15.5 34.5s21.833 15.5 34.5 15.5s24.167 -5.16699 34.5 -15.5s15.5 -21.833 15.5 -34.5s-5.16699 -24.167 -15.5 -34.5s-21.833 -15.5 -34.5 -15.5s-24.167 5.16699 -34.5 15.5zM204.5 523.5
c-10.333 10.333 -15.5 21.833 -15.5 34.5s5.16699 24.167 15.5 34.5s21.833 15.5 34.5 15.5s24.167 -5.16699 34.5 -15.5s15.5 -21.833 15.5 -34.5s-5.16699 -24.167 -15.5 -34.5s-21.833 -15.5 -34.5 -15.5s-24.167 5.16699 -34.5 15.5z" />
    <glyph glyph-name="copyright" unicode="&#xa9;" horiz-adv-x="665" 
d="M193.5 65c-46.333 27.333 -82.9971 64.166 -109.997 110.499s-40.5 96.833 -40.5 151.5s13.667 105.167 41 151.5s64.166 83.166 110.499 110.499s96.833 41 151.5 41s105.167 -13.667 151.5 -41s83.166 -64.166 110.499 -110.499s41 -96.833 41 -151.5
s-13.667 -105.167 -41 -151.5s-64.333 -83.166 -111 -110.499s-97.334 -41 -152.001 -41s-105.167 13.667 -151.5 41zM477.503 94.5c40.333 24.333 72.3311 57.166 95.998 98.499s35.5 86 35.5 134c0 47.333 -11.833 91.666 -35.5 132.999s-55.667 74.333 -96 99
s-84.166 37 -131.499 37s-91.166 -12.333 -131.499 -37s-72.333 -57.667 -96 -99s-35.5 -85.666 -35.5 -132.999c0 -48 11.667 -92.667 35 -134s55 -74.166 95 -98.499s84 -36.5 132 -36.5s92.167 12.167 132.5 36.5zM273.501 178.5
c-26.333 16.333 -47.168 38.002 -62.501 65.002s-23 55.167 -23 84.5c0 32 9 60.667 27 86s41.667 45 71 59s60.666 21 93.999 21c24.667 0 51.334 -4.33301 80.001 -13c1.33301 -0.666992 3.5 -1.33398 6.5 -2.00098s5.16699 -1.83398 6.5 -3.50098
s2.33301 -4.16699 3 -7.5c2 -8.66699 3 -20 3 -34l-1 -25c0 -2 -1.16699 -4.5 -3.5 -7.5s-4.5 -4.16699 -6.5 -3.5c-4 0 -8 5 -12 15c-5.33301 14.667 -14.666 26.334 -27.999 35.001c-16 10.667 -35 16 -57 16c-33.333 0 -60.5 -12.833 -81.5 -38.5
s-31.5 -57.167 -31.5 -94.5c0 -39.333 10.5 -73.666 31.5 -102.999s49.833 -44 86.5 -44c44 0 72.667 13.667 86 41c2 4.66699 4.83301 8.33398 8.5 11.001s6.5 4 8.5 4c3.33301 0 5 -4.33301 5 -13c0 -4.66699 -1.5 -11.334 -4.5 -20.001s-6.5 -16.334 -10.5 -23.001
c-2.66699 -4.66699 -5 -7.83398 -7 -9.50098s-5.33301 -4.16699 -10 -7.5c-19.333 -8.66699 -50.333 -13 -93 -13c-30.667 0 -59.167 8.16699 -85.5 24.5z" />
    <glyph glyph-name="ordfeminine" unicode="&#xaa;" horiz-adv-x="310" 
d="M64 288.5c-12 13.667 -18.001 26.4971 -18.001 38.4971c0 14 2.5 25 7.5 33s14.833 14.667 29.5 20l76 28c8.66699 2.66699 13.834 5.33398 15.501 8.00098s2.5 8 2.5 16v23c0 10.667 -3.33301 19.334 -10 26.001s-15.667 10 -27 10
c-9.33301 0 -18.333 -1.16699 -27 -3.5s-14 -5.5 -16 -9.5c-1.33301 -4 -2 -8.83301 -2 -14.5v-10.5c0 -3.33301 -5.33301 -6.83301 -16 -10.5s-20.334 -6.5 -29.001 -8.5h-1c-2 0 -3.33301 1 -4 3s-0.333984 4.33301 0.999023 7c4 10 7.33301 17.333 10 22
s7.66699 10 15 16c12 10 27.333 19.5 46 28.5s35.667 13.5 51 13.5c16 0 30.5 -5.33301 43.5 -16s19.167 -23 18.5 -37l-3 -124c0 -26 7 -39 21 -39c4.66699 0 8.33398 0.833008 11.001 2.5s4.33398 2.83398 5.00098 3.50098c4 2.66699 6.66699 4 8 4
c2.66699 0 5 -1.66699 7 -5s3 -6.66602 3 -9.99902c0 -2.66699 -3.33301 -7.33398 -10 -14.001c-14 -14 -27 -21 -39 -21c-22 0 -38.333 10.333 -49 31h-4c-11.333 -9.33301 -22.833 -16.833 -34.5 -22.5s-26.5 -8.5 -44.5 -8.5c-12.667 0 -25 6.83301 -37 20.5z
M148.999 312.997c6 3.33301 12.666 8.00098 19.999 14.001c2.66699 2 4.5 4.83301 5.5 8.5s1.5 8.5 1.5 14.5l1 29c0 6 -1.16699 9.66699 -3.5 11s-6.16602 1.33301 -11.499 0c-22.667 -6.66699 -39.167 -14.334 -49.5 -23.001s-15.5 -17 -15.5 -25
c0 -10.667 3.5 -19 10.5 -25s14.167 -9 21.5 -9s14 1.66699 20 5zM274.498 192.498c3 -2.33301 4.49902 -4.83398 4.49902 -7.50098l-1 -3c-7.33301 -14 -17.666 -21 -30.999 -21h-198c-3.33301 0 -6.5 1.33301 -9.5 4s-4.5 5.33398 -4.5 8.00098
c0 4.66699 2.5 9.66699 7.5 15s10.5 8 16.5 8h206c3.33301 0 6.5 -1.16699 9.5 -3.5z" />
    <glyph glyph-name="guillemotleft" unicode="&#xab;" horiz-adv-x="595" 
d="M283 37c-32.667 32 -67.166 60.6631 -103.499 85.9961s-70.166 45 -101.499 59c-4.66699 2.66699 -8.83398 7 -12.501 13s-5.5 11.333 -5.5 16c0 4 1 6.33301 3 7c54 32.667 97 60.334 129 83.001s64.333 49.667 97 81c12 12 21.667 18 29 18c4 0 6 -3 6 -9
c0 -4.66699 -1.66699 -9.66699 -5 -15c-24.667 -37.333 -48.5 -67.166 -71.5 -89.499s-49.833 -45.5 -80.5 -69.5c-4 -2.66699 -6 -5 -6 -7c0 -1.33301 2 -3.66602 6 -6.99902c28 -21.333 54 -44.333 78 -69s48.667 -56 74 -94c2 -2.66699 3 -5.66699 3 -9
s-0.833008 -6.16602 -2.5 -8.49902s-3.83398 -3.5 -6.50098 -3.5c-8 0 -18 6 -30 18zM494.001 36.9961c-32.667 32 -67.166 60.6631 -103.499 85.9961s-70.166 45 -101.499 59c-4.66699 2.66699 -8.83398 7 -12.501 13s-5.5 11.333 -5.5 16c0 4 1 6.33301 3 7
c54 32.667 97 60.334 129 83.001s64.333 49.667 97 81c12 12 21.667 18 29 18c4 0 6 -3 6 -9c0 -4.66699 -1.66699 -9.66699 -5 -15c-24.667 -37.333 -48.5 -67.166 -71.5 -89.499s-49.833 -45.5 -80.5 -69.5c-4 -2.66699 -6 -5 -6 -7c0 -1.33301 2 -3.66602 6 -6.99902
c28 -21.333 54 -44.333 78 -69s48.667 -56 74 -94c2 -2.66699 3 -5.66699 3 -9s-0.833008 -6.16602 -2.5 -8.49902s-3.83398 -3.5 -6.50098 -3.5c-8 0 -18 6 -30 18z" />
    <glyph glyph-name="logicalnot" unicode="&#xac;" horiz-adv-x="600" 
d="M494 47.5c-2.66699 3 -4.00098 6.16797 -4.00098 9.50098v247c0 12 -4.66699 18 -14 18h-412c-3.33301 0 -6.5 1.33301 -9.5 4s-4.5 5.33398 -4.5 8.00098c0 9.33301 1.83301 19.666 5.5 30.999s9.83398 17 18.501 17h463c3.33301 0 6.33301 -1.5 9 -4.5
s4 -6.16699 4 -9.5v-301c0 -8.66699 -5.66699 -14.834 -17 -18.501s-21.666 -5.5 -30.999 -5.5c-2.66699 0 -5.33398 1.5 -8.00098 4.5z" />
    <glyph glyph-name="uni00AD" unicode="&#xad;" horiz-adv-x="274" 
d="M29 176c0 12 1.49902 23.832 4.49902 35.499s6.83301 17.834 11.5 18.501c85.333 12 149.333 20.333 192 25c5.33301 0 8 -2 8 -6c0 -14.667 -1.66699 -27.167 -5 -37.5s-8.66602 -15.833 -15.999 -16.5l-26 -4c-68.667 -10.667 -123 -17.667 -163 -21c-4 0 -6 2 -6 6z
" />
    <glyph glyph-name="registered" unicode="&#xae;" horiz-adv-x="665" 
d="M193.5 65c-46.333 27.333 -82.9971 64.166 -109.997 110.499s-40.5 96.833 -40.5 151.5s13.667 105.167 41 151.5s64.166 83.166 110.499 110.499s96.833 41 151.5 41s105.167 -13.667 151.5 -41s83.166 -64.166 110.499 -110.499s41 -96.833 41 -151.5
s-13.667 -105.167 -41 -151.5s-64.333 -83.166 -111 -110.499s-97.334 -41 -152.001 -41s-105.167 13.667 -151.5 41zM477.503 94.5c40.333 24.333 72.3311 57.166 95.998 98.499s35.5 86 35.5 134c0 47.333 -11.833 91.166 -35.5 131.499s-55.667 72.333 -96 96
s-84.166 35.5 -131.499 35.5s-91.166 -11.833 -131.499 -35.5s-72.333 -55.667 -96 -96s-35.5 -84.166 -35.5 -131.499c0 -48 11.667 -92.667 35 -134s55 -74.166 95 -98.499s84 -36.5 132 -36.5s92.167 12.167 132.5 36.5zM433.501 195
c-17 14.667 -32.166 32.334 -45.499 53.001s-23.333 39.334 -30 56.001c-4 10.667 -16.667 16 -38 16c-4 0 -7.66699 -1 -11 -3s-5 -4.66699 -5 -8l1 -78c0 -10 2.83301 -17 8.5 -21s14.167 -7.66699 25.5 -11c12.667 -4 19 -9.33301 19 -16
c0 -2.66699 -1.83301 -5.16699 -5.5 -7.5s-7.16699 -3.5 -10.5 -3.5c-11.333 0 -23 0.666992 -35 2c-10.667 1.33301 -20.667 2 -30 2s-18.666 -0.666992 -27.999 -2c-10.667 -1.33301 -21.667 -2 -33 -2c-3.33301 0 -6.83301 1.16699 -10.5 3.5s-5.5 4.83301 -5.5 7.5
c0 6.66699 6.33301 12 19 16c9.33301 2.66699 15.833 6.16699 19.5 10.5s5.5 11.5 5.5 21.5v195c0 17.333 -0.833008 27.833 -2.5 31.5s-4.83398 6.16699 -9.50098 7.5s-8.33398 2.33301 -11.001 3c-7.33301 2 -12.333 4.16699 -15 6.5s-4 5.5 -4 9.5
c0 3.33301 1.5 6.16602 4.5 8.49902s7.16699 3.5 12.5 3.5s14.666 -0.666992 27.999 -2c9.33301 -2 18.333 -3 27 -3c16.667 0 33 1 49 3c21.333 1.33301 37.333 2 48 2c26.667 0 49.834 -7.16699 69.501 -21.5s29.5 -33.5 29.5 -57.5c0 -19.333 -6.16699 -36 -18.5 -50
s-26.833 -24 -43.5 -30c-3.33301 -0.666992 -5 -2.33398 -5 -5.00098c0 -1.33301 1.66699 -5.33301 5 -12c10 -26.667 26.167 -52.667 48.5 -78s40.5 -38 54.5 -38l10 1c4 0 6 -1.66699 6 -5c0 -8 -4.66699 -14.5 -14 -19.5s-19.333 -7.5 -30 -7.5
c-16 0 -32.5 7.33301 -49.5 22zM383.502 366c15 12.667 22.499 28.333 22.499 47c0 16 -6.16699 29 -18.5 39s-27.5 15 -45.5 15c-14 0 -23.833 -2.5 -29.5 -7.5s-8.5 -12.5 -8.5 -22.5v-70c0 -8.66699 2.33301 -14.167 7 -16.5s11.334 -3.5 20.001 -3.5
c20 0 37.5 6.33301 52.5 19z" />
    <glyph glyph-name="macron" unicode="&#xaf;" horiz-adv-x="300" 
d="M34.5 503.5c-3 2.33301 -4.5 5.16797 -4.5 8.50098c0 8 2 17.167 6 27.5s10 15.5 18 15.5h203c3.33301 0 6.33301 -1.33301 9 -4s4 -5.33398 4 -8.00098c0 -12 -2.66699 -22.167 -8 -30.5s-13 -12.5 -23 -12.5h-195c-3.33301 0 -6.5 1.16699 -9.5 3.5z" />
    <glyph glyph-name="degree" unicode="&#xb0;" horiz-adv-x="290" 
d="M86.5 419.5c-18.333 11.667 -33.166 27.168 -44.499 46.501s-17 39.333 -17 60s5.66699 40.167 17 58.5s26.166 33 44.499 44s37.833 16.5 58.5 16.5s40.167 -5.33301 58.5 -16s33.166 -25 44.499 -43s17 -37.333 17 -58s-5.66699 -40.834 -17 -60.501
s-26.166 -35.5 -44.499 -47.5s-37.833 -18 -58.5 -18s-40.167 5.83301 -58.5 17.5zM199 467.501c15.333 15.667 23 34.167 23 55.5c0 22 -7.5 40.667 -22.5 56s-33.167 23 -54.5 23s-39.5 -7.66699 -54.5 -23s-22.5 -34 -22.5 -56c0 -21.333 7.66699 -39.833 23 -55.5
s33.333 -23.5 54 -23.5s38.667 7.83301 54 23.5z" />
    <glyph glyph-name="plusminus" unicode="&#xb1;" horiz-adv-x="590" 
d="M274 125.5c-2.66699 3 -4 6.16602 -4 9.49902v211c0 3.33301 -1.33301 5 -4 5h-202c-3.33301 0 -6.5 1.33301 -9.5 4s-4.5 5.33398 -4.5 8.00098c0 7.33301 2 15.5 6 24.5s10 13.5 18 13.5h189c2.66699 0 4.5 0.5 5.5 1.5s1.5 3.16699 1.5 6.5v171
c0 8 4.83301 15.167 14.5 21.5s16.834 9.5 21.501 9.5c3.33301 0 6.5 -1.33301 9.5 -4s4.5 -5.66699 4.5 -9v-191c0 -2.66699 0.166992 -4.33398 0.5 -5.00098s0.833008 -1 1.5 -1h2h203c3.33301 0 6.5 -1.16699 9.5 -3.5s4.5 -4.83301 4.5 -7.5
c0 -7.33301 -3.5 -15.666 -10.5 -24.999s-14.167 -14 -21.5 -14h-185c-2.66699 0 -4 -1.33301 -4 -4v-202c0 -8 -4.5 -14 -13.5 -18s-17.167 -6 -24.5 -6c-2.66699 0 -5.33398 1.5 -8.00098 4.5zM54.5 41.999c-3 2.66699 -4.5 5.33203 -4.5 7.99902c0 7.33301 2 15.5 6 24.5
s10 13.5 18 13.5h453c3.33301 0 6.5 -1.16699 9.5 -3.5s4.5 -4.83301 4.5 -7.5c0 -7.33301 -3.5 -15.666 -10.5 -24.999s-14.167 -14 -21.5 -14h-445c-3.33301 0 -6.5 1.33301 -9.5 4z" />
    <glyph glyph-name="uni00B2" unicode="&#xb2;" horiz-adv-x="300" 
d="M176 439c-21.333 1.33301 -36.998 2.00293 -46.998 2.00293l-58 -1c-10.667 -0.666992 -23.667 -1 -39 -1c-2.66699 0 -5.33398 1.16699 -8.00098 3.5s-4 4.5 -4 6.5s2.66699 5.33301 8 10l39 35c28 25.333 53.5 53.166 76.5 83.499s34.5 57.833 34.5 82.5
c0 21.333 -5.16699 37.666 -15.5 48.999s-23.833 17 -40.5 17s-30.5 -3 -41.5 -9s-23.833 -16.667 -38.5 -32c-2.66699 -4 -5.66699 -6 -9 -6c-2 0 -3.66699 1.5 -5 4.5s-2 6.16699 -2 9.5c0 6.66699 5 17 15 31s23.833 26.333 41.5 37s37.834 16 60.501 16
c29.333 0 51.833 -8.83301 67.5 -26.5s23.5 -39.834 23.5 -66.501c0 -13.333 -3.66699 -28 -11 -44s-17 -31.333 -29 -46c-16.667 -20.667 -33.667 -40.167 -51 -58.5s-30.666 -31.166 -39.999 -38.499l-1 -2c0 -0.666992 1.33301 -1.33398 4 -2.00098s5 -1 7 -1h73
c14 0 26.167 4.16699 36.5 12.5s21.5 20.833 33.5 37.5c2 3.33301 4.16699 6 6.5 8s5.16602 3 8.49902 3c2.66699 0 4 -1.16699 4 -3.5v-4.5c-0.666992 -2.66699 -4.33398 -13.667 -11.001 -33s-12.334 -40 -17.001 -62c-1.33301 -8.66699 -4.33301 -13 -9 -13
c-16 0 -36.667 0.666992 -62 2z" />
    <glyph glyph-name="uni00B3" unicode="&#xb3;" horiz-adv-x="284" 
d="M50.5 445c-13.667 7.33301 -20.5029 17.335 -20.5029 30.002c0 7.33301 1.83301 13.5 5.5 18.5s7.83398 7.5 12.501 7.5c2.66699 0 5.66699 -0.833008 9 -2.5s5.66602 -3.16699 6.99902 -4.5c14 -10.667 25 -18.167 33 -22.5s18 -6.5 30 -6.5
c16.667 0 29.834 6.66699 39.501 20s14.5 31 14.5 53c0 14 -6.16699 27.667 -18.5 41s-27.166 20 -44.499 20c-3.33301 0 -9.66602 -1.16699 -18.999 -3.5s-16 -3.5 -20 -3.5c-2.66699 0 -5.5 1 -8.5 3s-4.5 4 -4.5 6c0 5.33301 4.83301 10.5 14.5 15.5
s19.334 9.16699 29.001 12.5s16.167 5.66602 19.5 6.99902c14 6.66699 24.667 14.334 32 23.001s11 20 11 34c0 12 -5 22.333 -15 31s-21.333 13 -34 13c-29.333 0 -53 -13 -71 -39c-3.33301 -4.66699 -6.66602 -7 -9.99902 -7c-2 0 -4.16699 2 -6.5 6s-3.5 7 -3.5 9
c0 8 5.33301 17.667 16 29s24.167 21.166 40.5 29.499s32.5 12.5 48.5 12.5c22.667 0 42.667 -6.66699 60 -20s26 -30.333 26 -51c0 -16.667 -4.5 -29.834 -13.5 -39.501s-23.167 -19.5 -42.5 -29.5c-4.66699 -2 -4.66699 -3.66699 0 -5c20.667 -6.66699 37.667 -16 51 -28
s20 -26.667 20 -44c0 -24 -6.66699 -45.667 -20 -65s-30.833 -34.333 -52.5 -45s-44.834 -16 -69.501 -16c-16.667 0 -31.834 3.66699 -45.501 11z" />
    <glyph glyph-name="acute" unicode="&#xb4;" horiz-adv-x="200" 
d="M22 466c0 4.66699 1.33203 10.6699 3.99902 18.0029c6 16 17.5 39.667 34.5 71l42.5 76c3.33301 5.33301 7.5 9.66602 12.5 12.999s9.83301 5 14.5 5c13.333 0 24.833 -1.83301 34.5 -5.5s14.5 -8.83398 14.5 -15.501c0 -4.66699 -1.33301 -9 -4 -13
s-4.66699 -6.66699 -6 -8c-11.333 -16.667 -28.666 -38.834 -51.999 -66.501s-42 -48.5 -56 -62.5s-24.333 -21 -31 -21c-5.33301 0 -8 3 -8 9z" />
    <glyph glyph-name="uni00B5" unicode="&#xb5;" horiz-adv-x="537" 
d="M121 -273.5c-6.66699 7.66699 -13.665 20.834 -20.998 39.501c-4 10.667 -7.33301 41.334 -10 92.001s-4 98 -4 142l-1 396c0 7.33301 1.83301 12.166 5.5 14.499s10.834 3.5 21.501 3.5c13.333 0 27.333 -3.5 42 -10.5s22 -12.833 22 -17.5
c0 -14.667 -5.33301 -58 -16 -130c-1.33301 -11.333 -4.16602 -32.166 -8.49902 -62.499s-6.5 -50.833 -6.5 -61.5c0 -17.333 5.16699 -34.833 15.5 -52.5s25.166 -26.5 44.499 -26.5c25.333 0 46.333 7 63 21s35 40 55 78c6.66699 24 12 60.167 16 108.5s6 94.833 6 139.5
c0 5.33301 1.5 9.16602 4.5 11.499s8.5 3.5 16.5 3.5c10 0 20.167 -2.33301 30.5 -7s19 -10 26 -16s10.5 -11 10.5 -15c0 -34 -16 -105.667 -48 -215c0 -22 5.33301 -42 16 -60s26.334 -27 47.001 -27c11.333 0 21.5 2.33301 30.5 7s17.833 10.334 26.5 17.001s14 10 16 10
c2.66699 0 5.16699 -0.833008 7.5 -2.5s3.5 -3.83398 3.5 -6.50098c0 -24 -4.5 -44.667 -13.5 -62s-20.5 -30.5 -34.5 -39.5s-28.333 -13.5 -43 -13.5c-16 0 -30.333 8.33301 -43 25s-21.667 39.667 -27 69c-1.33301 8.66699 -2.66602 21.667 -3.99902 39h-2
c-4 -8.66699 -13.333 -24 -28 -46s-31.334 -42 -50.001 -60s-35.334 -27 -50.001 -27c-30.667 0 -58.334 13.667 -83.001 41c-6 6 -12.333 13.5 -19 22.5s-10.334 13.5 -11.001 13.5c-2 0 -3.66699 -3.16699 -5 -9.5s-2 -14.5 -2 -24.5c0 3.33301 1 -38 3 -124l1 -35
c0.666992 -25.333 6.5 -45.333 17.5 -60s25.833 -29.334 44.5 -44.001c1.33301 -0.666992 4 -2.5 8 -5.5s6.83301 -5.5 8.5 -7.5s2.5 -4 2.5 -6c0 -9.33301 -5.33301 -16.833 -16 -22.5s-21.667 -8.5 -33 -8.5c-14.667 0 -25.334 3.83301 -32.001 11.5z" />
    <glyph glyph-name="paragraph" unicode="&#xb6;" horiz-adv-x="595" 
d="M195 -258.5c-24.667 20.333 -36.9951 46.833 -36.9951 79.5c0 21.333 5.33301 41.166 16 59.499s24.5 32.666 41.5 42.999s34.5 15.5 52.5 15.5c21.333 0 37.666 -4.83301 48.999 -14.5s17 -22.5 17 -38.5c0 -14 -4.16699 -25.667 -12.5 -35s-18.5 -14 -30.5 -14
c-10.667 0 -20.334 4.33301 -29.001 13c-1.33301 0.666992 -4.5 3.33398 -9.5 8.00098s-10.5 7 -16.5 7c-9.33301 0 -17.666 -4.5 -24.999 -13.5s-11 -21.5 -11 -37.5c0 -19.333 8.66699 -35.5 26 -48.5s37.333 -19.5 60 -19.5c28 0 51.667 11.333 71 34s29 58.667 29 108
v206c0 16.667 -4.33301 25 -13 25c-61.333 0 -116.833 9.66699 -166.5 29s-89 48.833 -118 88.5s-43.5 88.5 -43.5 146.5c0 176.667 120.667 265 362 265c25.333 0 51.666 -0.666992 78.999 -2s47.666 -2.66602 60.999 -3.99902c4.66699 -0.666992 8.33398 -3 11.001 -7
s4 -8.33301 4 -13c0 -5.33301 -1.5 -11.666 -4.5 -18.999s-6.16699 -11 -9.5 -11l-35.5 8.5c-21 5 -44.167 7.5 -69.5 7.5c-4.66699 0 -8.83398 -1.83301 -12.501 -5.5s-5.5 -7.83398 -5.5 -12.501v-702c0 -40 -6.83301 -73.333 -20.5 -100s-31.334 -46.167 -53.001 -58.5
s-44.834 -18.5 -69.501 -18.5c-33.333 0 -62.333 10.167 -87 30.5z" />
    <glyph glyph-name="periodcentered" unicode="&#xb7;" horiz-adv-x="200" 
d="M61.5 166.5c-11 11 -16.5 23.833 -16.5 38.5c0 15.333 5.5 28.333 16.5 39s23.833 16 38.5 16c15.333 0 28.333 -5.33301 39 -16s16 -23.667 16 -39c0 -14.667 -5.33301 -27.5 -16 -38.5s-23.667 -16.5 -39 -16.5c-14.667 0 -27.5 5.5 -38.5 16.5z" />
    <glyph glyph-name="cedilla" unicode="&#xb8;" horiz-adv-x="200" 
d="M30 -265c-4.66699 6 -7.00098 16.667 -7.00098 32c0 12.667 4.33301 19 13 19c2.66699 0 8.83398 -1.83301 18.501 -5.5s21.167 -5.5 34.5 -5.5c12.667 0 22.334 4.16699 29.001 12.5s10 19.166 10 32.499c0 18.667 -5.5 32.834 -16.5 42.501s-25.167 14.5 -42.5 14.5
c-4.66699 0 -9.66699 -1 -15 -3s-9 -3 -11 -3c-4 0 -8 1.5 -12 4.5s-6 6.5 -6 10.5c0 2.66699 1.66699 6.33398 5 11.001l88 111h31l-38 -50c-3.33301 -4.66699 -5 -8 -5 -10c0 -4 3.66699 -7.66699 11 -11c17.333 -7.33301 31.833 -17.833 43.5 -31.5
s17.5 -28.5 17.5 -44.5c0 -24.667 -7.5 -47.334 -22.5 -68.001s-32.5 -37 -52.5 -49s-36.667 -18 -50 -18c-10.667 0 -18.334 3 -23.001 9z" />
    <glyph glyph-name="uni00B9" unicode="&#xb9;" horiz-adv-x="259" 
d="M39 444.5c-2.66699 3 -3.99902 6.49805 -3.99902 10.498c0 3.33301 1.16699 6.83301 3.5 10.5s5.5 5.5 9.5 5.5c13.333 1.33301 23.666 2.66602 30.999 3.99902s13.666 5 18.999 11s8 15.333 8 28v150c0 12.667 -5.16699 23 -15.5 31s-22.833 13 -37.5 15
c-4 0.666992 -7.33301 2.33398 -10 5.00098s-4 5.33398 -4 8.00098c0 3.33301 1 6.33301 3 9s4.33301 4.33398 7 5.00098c22.667 2 42.5 7.5 59.5 16.5s29.5 17.833 37.5 26.5c2.66699 2.66699 5.66699 4 9 4s5.83301 -1.33301 7.5 -4s2.16699 -6 1.5 -10
c-4 -28 -6 -51.333 -6 -70v-186c0 -12 1.5 -20.5 4.5 -25.5s7.83301 -8.66699 14.5 -11s18.334 -4.5 35.001 -6.5c4 -0.666992 7 -2.5 9 -5.5s3 -6.5 3 -10.5s-1 -7.5 -3 -10.5s-5 -4.5 -9 -4.5c-22.667 0 -40.667 0.666992 -54 2l-28 1l-29 -1
c-13.333 -1.33301 -31 -2 -53 -2c-3.33301 0 -6.33301 1.5 -9 4.5z" />
    <glyph glyph-name="ordmasculine" unicode="&#xba;" horiz-adv-x="309" 
d="M61 301.5c-24 22.333 -36 51.166 -36 86.499c0 24 6.16699 46.5 18.5 67.5s28.833 37.667 49.5 50s43 18.5 67 18.5c21.333 0 41.5 -5.5 60.5 -16.5s34.333 -25.667 46 -44s17.5 -38.166 17.5 -59.499c0 -37.333 -12 -69.333 -36 -96s-57.333 -40 -100 -40
c-34 0 -63 11.167 -87 33.5zM206 323c10 17.333 15 39.334 15 66.001c0 27.333 -6.66699 51.5 -20 72.5s-30.666 31.5 -51.999 31.5c-20.667 0 -36 -8.66699 -46 -26s-15 -39 -15 -65c0 -28.667 6.66699 -53.334 20 -74.001s30.666 -31 51.999 -31
c20.667 0 36 8.66699 46 26zM280.5 192.501c3 -2.33301 4.49902 -4.83398 4.49902 -7.50098l-1 -3c-7.33301 -14 -17.666 -21 -30.999 -21h-214c-3.33301 0 -6.5 1.33301 -9.5 4s-4.5 5.33398 -4.5 8.00098c0 4.66699 2.5 9.66699 7.5 15s10.5 8 16.5 8h222
c3.33301 0 6.5 -1.16699 9.5 -3.5z" />
    <glyph glyph-name="guillemotright" unicode="&#xbb;" horiz-adv-x="595" 
d="M312 37c32.667 32 67.166 60.6631 103.499 85.9961s70.166 45 101.499 59c4.66699 2.66699 8.83398 7 12.501 13s5.5 11.333 5.5 16c0 4 -1 6.33301 -3 7c-54 32.667 -97 60.334 -129 83.001s-64.333 49.667 -97 81c-12 12 -21.667 18 -29 18c-4 0 -6 -3 -6 -9
c0 -4.66699 1.66699 -9.66699 5 -15c24.667 -37.333 48.5 -67.166 71.5 -89.499s49.833 -45.5 80.5 -69.5c4 -2.66699 6 -5 6 -7c0 -1.33301 -2 -3.66602 -6 -6.99902c-28 -21.333 -54 -44.333 -78 -69s-48.667 -56 -74 -94c-2 -2.66699 -3 -5.66699 -3 -9
s0.833008 -6.16602 2.5 -8.49902s3.83398 -3.5 6.50098 -3.5c8 0 18 6 30 18zM100.999 36.9961c32.667 32 67.166 60.6631 103.499 85.9961s70.166 45 101.499 59c4.66699 2.66699 8.83398 7 12.501 13s5.5 11.333 5.5 16c0 4 -1 6.33301 -3 7
c-54 32.667 -97 60.334 -129 83.001s-64.333 49.667 -97 81c-12 12 -21.667 18 -29 18c-4 0 -6 -3 -6 -9c0 -4.66699 1.66699 -9.66699 5 -15c24.667 -37.333 48.5 -67.166 71.5 -89.499s49.833 -45.5 80.5 -69.5c4 -2.66699 6 -5 6 -7c0 -1.33301 -2 -3.66602 -6 -6.99902
c-28 -21.333 -54 -44.333 -78 -69s-48.667 -56 -74 -94c-2 -2.66699 -3 -5.66699 -3 -9s0.833008 -6.16602 2.5 -8.49902s3.83398 -3.5 6.50098 -3.5c8 0 18 6 30 18z" />
    <glyph glyph-name="onequarter" unicode="&#xbc;" horiz-adv-x="657" 
d="M39 282.5c-2.66699 3 -3.99902 6.49805 -3.99902 10.498c0 3.33301 1.16699 6.83301 3.5 10.5s5.5 5.5 9.5 5.5c13.333 1.33301 23.666 2.66602 30.999 3.99902s13.666 5 18.999 11s8 15.333 8 28v150c0 12.667 -5.16699 23 -15.5 31s-22.833 13 -37.5 15
c-4 0.666992 -7.33301 2.33398 -10 5.00098s-4 5.33398 -4 8.00098c0 3.33301 1 6.33301 3 9s4.33301 4.33398 7 5.00098c22.667 2 42.5 7.5 59.5 16.5s29.5 17.833 37.5 26.5c2.66699 2.66699 5.66699 4 9 4s5.83301 -1.33301 7.5 -4s2.16699 -6 1.5 -10
c-4 -28 -6 -51.333 -6 -70v-186c0 -12 1.5 -20.5 4.5 -25.5s7.83301 -8.66699 14.5 -11s18.334 -4.5 35.001 -6.5c4 -0.666992 7 -2.5 9 -5.5s3 -6.5 3 -10.5s-1 -7.5 -3 -10.5s-5 -4.5 -9 -4.5c-22.667 0 -40.667 0.666992 -54 2l-28 1l-29 -1
c-13.333 -1.33301 -31 -2 -53 -2c-3.33301 0 -6.33301 1.5 -9 4.5zM571.501 661.498c6.33301 2.33301 14.168 3.49902 23.501 3.49902c3.33301 0 6.5 -1.33301 9.5 -4s4.5 -5.66699 4.5 -9c0 -2 -0.333008 -3.33301 -1 -4l-438 -695c-4 -6 -8.83301 -10 -14.5 -12
s-12.834 -3 -21.501 -3c-4 0 -7.83301 1.33301 -11.5 4s-5.5 5.33398 -5.5 8.00098c0 1.33301 0.333008 2.33301 1 3l438 695c4 6.66699 9.16699 11.167 15.5 13.5zM527.003 -0.00292969l-0.00292969 92c0 2 -1.16699 3.33301 -3.5 4s-4.16602 1 -5.49902 1
c-16 0 -40 -0.666992 -72 -2c-29.333 -1.33301 -54 -2 -74 -2c-1.33301 0 -2.83301 0.833008 -4.5 2.5s-2.5 3.16699 -2.5 4.5c0 0.666992 0.166992 1 0.5 1h0.5l108 135c0.666992 1.33301 8.33398 11 23.001 29c18.667 23.333 38 45 58 65
c8.66699 8.66699 15.334 13 20.001 13c2.66699 0 4 -3 4 -9v-194c0 -5.33301 2.33301 -8 7 -8h21c12.667 0 24 0.333008 34 1c4 0 6 -2.33301 6 -7c0 -5.33301 -1.66699 -11.166 -5 -17.499s-6.33301 -9.5 -9 -9.5h-40c-5.33301 0 -9 -0.5 -11 -1.5s-3 -2.5 -3 -4.5v-74
c0 -6.66699 -6.16699 -12.834 -18.5 -18.501s-20.5 -8.5 -24.5 -8.5c-6 0 -9 2.66699 -9 8zM519 132.997c2 0 3.83496 0.5 5.50195 1.5s2.5 2.16699 2.5 3.5v118c0 1.33301 -0.833008 2 -2.5 2s-2.83398 -0.333008 -3.50098 -1c-26.667 -30 -59.334 -69.667 -98.001 -119
c-1.33301 -3.33301 -1.33301 -5 0 -5h96z" />
    <glyph glyph-name="onehalf" unicode="&#xbd;" horiz-adv-x="717" 
d="M39 282.5c-2.66699 3 -3.99902 6.49805 -3.99902 10.498c0 3.33301 1.16699 6.83301 3.5 10.5s5.5 5.5 9.5 5.5c13.333 1.33301 23.666 2.66602 30.999 3.99902s13.666 5 18.999 11s8 15.333 8 28v150c0 12.667 -5.16699 23 -15.5 31s-22.833 13 -37.5 15
c-4 0.666992 -7.33301 2.33398 -10 5.00098s-4 5.33398 -4 8.00098c0 3.33301 1 6.33301 3 9s4.33301 4.33398 7 5.00098c22.667 2 42.5 7.5 59.5 16.5s29.5 17.833 37.5 26.5c2.66699 2.66699 5.66699 4 9 4s5.83301 -1.33301 7.5 -4s2.16699 -6 1.5 -10
c-4 -28 -6 -51.333 -6 -70v-186c0 -12 1.5 -20.5 4.5 -25.5s7.83301 -8.66699 14.5 -11s18.334 -4.5 35.001 -6.5c4 -0.666992 7 -2.5 9 -5.5s3 -6.5 3 -10.5s-1 -7.5 -3 -10.5s-5 -4.5 -9 -4.5c-22.667 0 -40.667 0.666992 -54 2l-28 1l-29 -1
c-13.333 -1.33301 -31 -2 -53 -2c-3.33301 0 -6.33301 1.5 -9 4.5zM571.501 661.498c6.33301 2.33301 14.168 3.49902 23.501 3.49902c3.33301 0 6.5 -1.33301 9.5 -4s4.5 -5.66699 4.5 -9c0 -2 -0.333008 -3.33301 -1 -4l-438 -695c-4 -6 -8.83301 -10 -14.5 -12
s-12.834 -3 -21.501 -3c-4 0 -7.83301 1.33301 -11.5 4s-5.5 5.33398 -5.5 8.00098c0 1.33301 0.333008 2.33301 1 3l438 695c4 6.66699 9.16699 11.167 15.5 13.5zM593.003 -15.0029c-21.333 1.33301 -36.998 2.00293 -46.998 2.00293l-58 -1
c-10.667 -0.666992 -23.667 -1 -39 -1c-2.66699 0 -5.33398 1.16699 -8.00098 3.5s-4 4.5 -4 6.5s2.66699 5.33301 8 10l39 35c28 25.333 53.5 53.166 76.5 83.499s34.5 57.833 34.5 82.5c0 21.333 -5.16699 37.666 -15.5 48.999s-23.833 17 -40.5 17s-30.5 -3 -41.5 -9
s-23.833 -16.667 -38.5 -32c-2.66699 -4 -5.66699 -6 -9 -6c-2 0 -3.66699 1.5 -5 4.5s-2 6.16699 -2 9.5c0 6.66699 5 17 15 31s23.833 26.333 41.5 37s37.834 16 60.501 16c29.333 0 51.833 -8.83301 67.5 -26.5s23.5 -39.834 23.5 -66.501
c0 -13.333 -3.66699 -28 -11 -44s-17 -31.333 -29 -46c-16.667 -20.667 -33.667 -40.167 -51 -58.5s-30.666 -31.166 -39.999 -38.499l-1 -2c0 -0.666992 1.33301 -1.33398 4 -2.00098s5 -1 7 -1h73c14 0 26.167 4.16699 36.5 12.5s21.5 20.833 33.5 37.5
c2 3.33301 4.16699 6 6.5 8s5.16602 3 8.49902 3c2.66699 0 4 -1.16699 4 -3.5v-4.5c-0.666992 -2.66699 -4.33398 -13.667 -11.001 -33s-12.334 -40 -17.001 -62c-1.33301 -8.66699 -4.33301 -13 -9 -13c-16 0 -36.667 0.666992 -62 2z" />
    <glyph glyph-name="threequarters" unicode="&#xbe;" horiz-adv-x="634" 
d="M50.5 285c-13.667 7.33301 -20.5029 17.335 -20.5029 30.002c0 7.33301 1.83301 13.5 5.5 18.5s7.83398 7.5 12.501 7.5c2.66699 0 5.66699 -0.833008 9 -2.5s5.66602 -3.16699 6.99902 -4.5c14 -10.667 25 -18.167 33 -22.5s18 -6.5 30 -6.5
c16.667 0 29.834 6.66699 39.501 20s14.5 31 14.5 53c0 14 -6.16699 27.667 -18.5 41s-27.166 20 -44.499 20c-3.33301 0 -9.66602 -1.16699 -18.999 -3.5s-16 -3.5 -20 -3.5c-2.66699 0 -5.5 1 -8.5 3s-4.5 4 -4.5 6c0 5.33301 4.83301 10.5 14.5 15.5
s19.334 9.16699 29.001 12.5s16.167 5.66602 19.5 6.99902c14 6.66699 24.667 14.334 32 23.001s11 20 11 34c0 12 -5 22.333 -15 31s-21.333 13 -34 13c-29.333 0 -53 -13 -71 -39c-3.33301 -4.66699 -6.66602 -7 -9.99902 -7c-2 0 -4.16699 2 -6.5 6s-3.5 7 -3.5 9
c0 8 5.33301 17.667 16 29s24.167 21.166 40.5 29.499s32.5 12.5 48.5 12.5c22.667 0 42.667 -6.66699 60 -20s26 -30.333 26 -51c0 -16.667 -4.5 -29.834 -13.5 -39.501s-23.167 -19.5 -42.5 -29.5c-4.66699 -2 -4.66699 -3.66699 0 -5c20.667 -6.66699 37.667 -16 51 -28
s20 -26.667 20 -44c0 -24 -6.66699 -45.667 -20 -65s-30.833 -34.333 -52.5 -45s-44.834 -16 -69.501 -16c-16.667 0 -31.834 3.66699 -45.501 11zM548.497 661.502c6.33301 2.33301 14.168 3.49902 23.501 3.49902c3.33301 0 6.5 -1.33301 9.5 -4s4.5 -5.66699 4.5 -9
c0 -2 -0.333008 -3.33301 -1 -4l-438 -695c-4 -6 -8.83301 -10 -14.5 -12s-12.834 -3 -21.501 -3c-4 0 -7.83301 1.33301 -11.5 4s-5.5 5.33398 -5.5 8.00098c0 1.33301 0.333008 2.33301 1 3l438 695c4 6.66699 9.16699 11.167 15.5 13.5zM503.999 0.000976562
l-0.00292969 92c0 2 -1.16699 3.33301 -3.5 4s-4.16602 1 -5.49902 1c-16 0 -40 -0.666992 -72 -2c-29.333 -1.33301 -54 -2 -74 -2c-1.33301 0 -2.83301 0.833008 -4.5 2.5s-2.5 3.16699 -2.5 4.5c0 0.666992 0.166992 1 0.5 1h0.5l108 135
c0.666992 1.33301 8.33398 11 23.001 29c18.667 23.333 38 45 58 65c8.66699 8.66699 15.334 13 20.001 13c2.66699 0 4 -3 4 -9v-194c0 -5.33301 2.33301 -8 7 -8h21c12.667 0 24 0.333008 34 1c4 0 6 -2.33301 6 -7c0 -5.33301 -1.66699 -11.166 -5 -17.499
s-6.33301 -9.5 -9 -9.5h-40c-5.33301 0 -9 -0.5 -11 -1.5s-3 -2.5 -3 -4.5v-74c0 -6.66699 -6.16699 -12.834 -18.5 -18.501s-20.5 -8.5 -24.5 -8.5c-6 0 -9 2.66699 -9 8zM495.996 133.001c2 0 3.83496 0.5 5.50195 1.5s2.5 2.16699 2.5 3.5v118
c0 1.33301 -0.833008 2 -2.5 2s-2.83398 -0.333008 -3.50098 -1c-26.667 -30 -59.334 -69.667 -98.001 -119c-1.33301 -3.33301 -1.33301 -5 0 -5h96z" />
    <glyph glyph-name="questiondown" unicode="&#xbf;" horiz-adv-x="376" 
d="M252 290.5c4.66699 -5.66699 7.99512 -12.5 9.99512 -20.5l6.5 -20c3 -9.33301 5.33301 -19.5 7 -30.5s2.5 -23.167 2.5 -36.5c0 -16 -8 -30.5 -24 -43.5s-41.667 -28.5 -77 -46.5c-16 -8 -30.167 -18.5 -42.5 -31.5s-18.5 -26.167 -18.5 -39.5
c0 -34 8.66699 -61.5 26 -82.5s42.333 -31.833 75 -32.5c6 0 13.667 0.666992 23 2s17.333 2 24 2c10.667 0 20.334 -6 29.001 -18s13 -24.667 13 -38c0 -9.33301 -4.5 -17.666 -13.5 -24.999s-17.833 -11 -26.5 -11c-17.333 0 -35.666 4.33301 -54.999 13s-37 21 -53 37
c-27.333 27.333 -49.666 59.666 -66.999 96.999s-26 69.333 -26 96c0 40.667 14 68.667 42 84c32.667 18 61.334 35 86.001 51c12.667 8 21 18.333 25 31s6.33301 28.667 7 48c0 5.33301 1.33301 10.5 4 15.5s6.33398 7.5 11.001 7.5c3.33301 0 7.33301 -2.83301 12 -8.5z
M268.495 476.5c11.667 -11.667 17.5 -25.834 17.5 -42.501s-5.83301 -30.834 -17.5 -42.501s-25.834 -17.5 -42.501 -17.5s-30.834 5.83301 -42.501 17.5s-17.5 25.834 -17.5 42.501s5.83301 30.834 17.5 42.501s25.834 17.5 42.501 17.5s30.834 -5.83301 42.501 -17.5z" />
    <glyph glyph-name="Agrave" unicode="&#xc0;" horiz-adv-x="692" 
d="M6 -1.5c-5.33301 2.33301 -8 5.49902 -8 9.49902c0 8.66699 11 16.334 33 23.001c19.333 6 36 14.5 50 25.5s26 28.167 36 51.5c35.333 81.333 66.166 155.166 92.499 221.499l94.5 248.5c7.33301 20.667 12 40 14 58c2 0.666992 6.83301 2.16699 14.5 4.5
s14.834 5.83301 21.501 10.5c5.33301 4 9.5 10 12.5 18s5.16699 13.333 6.5 16c0.666992 0.666992 1.5 0.833984 2.5 0.500977s1.83301 -0.833008 2.5 -1.5c1.33301 -3.33301 2.5 -7 3.5 -11s2.16699 -7.66699 3.5 -11l178 -534c12.667 -36.667 26.667 -61.5 42 -74.5
s35 -21.5 59 -25.5c10.667 -2 18.834 -5.16699 24.501 -9.5s8.5 -8.83301 8.5 -13.5c0 -6.66699 -9.66699 -10 -29 -10l-54 2c-37.333 2.66699 -65.666 4 -84.999 4l-105 -1c-19.333 0 -29 4 -29 12c0 4 3.16699 7.83301 9.5 11.5s14.166 6.16699 23.499 7.5
c40.667 6.66699 61 21.667 61 45c0 21.333 -13 75.333 -39 162c-1.33301 4.66699 -3.83301 7.66699 -7.5 9s-10.167 2 -19.5 2h-189c-7.33301 0 -13 -6 -17 -18c-7.33301 -21.333 -16 -49.166 -26 -83.499s-15 -54.5 -15 -60.5c0 -14 5.5 -26 16.5 -36s24.833 -17 41.5 -21
c12 -3.33301 20.5 -6.33301 25.5 -9s7.5 -6.33398 7.5 -11.001c0 -7.33301 -9.66699 -11 -29 -11c-12 0 -22 0.333008 -30 1l-61 1c-11.333 0 -23.833 -0.5 -37.5 -1.5s-23.834 -1.5 -30.501 -1.5c-18.667 -2 -36 -3 -52 -3c-8.66699 0 -15.667 1.16699 -21 3.5z
M416 281.999c4 0 7.33301 0.333008 10 1s4 2 4 4l-2 10l-78 244c-4 12 -7 18 -9 18c-1.33301 0 -4 -5.66699 -8 -17l-91 -245l-2 -8c0 -3.33301 1.5 -5.33301 4.5 -6s8.5 -1 16.5 -1h155zM377 693.999l-45 34.001c-42 32 -70.333 54.667 -85 68
c-4 3.33301 -7.16699 6.5 -9.5 9.5s-3.5 6.16699 -3.5 9.5c0 6 7.33301 11.333 22 16s26.667 7 36 7c12 0 21 -4.33301 27 -13c28 -40.667 53.667 -80.334 77 -119.001c3.33301 -5.33301 5 -10.333 5 -15c0 -4 -2 -6 -6 -6s-10 3 -18 9z" />
    <glyph glyph-name="Aacute" unicode="&#xc1;" horiz-adv-x="692" 
d="M6 -1.5c-5.33301 2.33301 -8 5.49902 -8 9.49902c0 8.66699 11 16.334 33 23.001c19.333 6 36 14.5 50 25.5s26 28.167 36 51.5c35.333 81.333 66.166 155.166 92.499 221.499l94.5 248.5c7.33301 20.667 12 40 14 58c2 0.666992 6.83301 2.16699 14.5 4.5
s14.834 5.83301 21.501 10.5c5.33301 4 9.5 10 12.5 18s5.16699 13.333 6.5 16c0.666992 0.666992 1.5 0.833984 2.5 0.500977s1.83301 -0.833008 2.5 -1.5c1.33301 -3.33301 2.5 -7 3.5 -11s2.16699 -7.66699 3.5 -11l178 -534c12.667 -36.667 26.667 -61.5 42 -74.5
s35 -21.5 59 -25.5c10.667 -2 18.834 -5.16699 24.501 -9.5s8.5 -8.83301 8.5 -13.5c0 -6.66699 -9.66699 -10 -29 -10l-54 2c-37.333 2.66699 -65.666 4 -84.999 4l-105 -1c-19.333 0 -29 4 -29 12c0 4 3.16699 7.83301 9.5 11.5s14.166 6.16699 23.499 7.5
c40.667 6.66699 61 21.667 61 45c0 21.333 -13 75.333 -39 162c-1.33301 4.66699 -3.83301 7.66699 -7.5 9s-10.167 2 -19.5 2h-189c-7.33301 0 -13 -6 -17 -18c-7.33301 -21.333 -16 -49.166 -26 -83.499s-15 -54.5 -15 -60.5c0 -14 5.5 -26 16.5 -36s24.833 -17 41.5 -21
c12 -3.33301 20.5 -6.33301 25.5 -9s7.5 -6.33398 7.5 -11.001c0 -7.33301 -9.66699 -11 -29 -11c-12 0 -22 0.333008 -30 1l-61 1c-11.333 0 -23.833 -0.5 -37.5 -1.5s-23.834 -1.5 -30.501 -1.5c-18.667 -2 -36 -3 -52 -3c-8.66699 0 -15.667 1.16699 -21 3.5z
M416 281.999c4 0 7.33301 0.333008 10 1s4 2 4 4l-2 10l-78 244c-4 12 -7 18 -9 18c-1.33301 0 -4 -5.66699 -8 -17l-91 -245l-2 -8c0 -3.33301 1.5 -5.33301 4.5 -6s8.5 -1 16.5 -1h155zM324 690.999c0 4.66699 1.66699 9.66602 5 14.999
c23.333 38.667 49 78.334 77 119.001c6 8.66699 15 13 27 13c9.33301 0 21.333 -2.33301 36 -7s22 -10 22 -16c0 -3.33301 -1.16699 -6.5 -3.5 -9.5s-5.5 -6.16699 -9.5 -9.5c-14.667 -13.333 -43 -36 -85 -68l-45 -34c-8 -6 -14 -9 -18 -9s-6 2 -6 6z" />
    <glyph glyph-name="Acircumflex" unicode="&#xc2;" horiz-adv-x="692" 
d="M6 -1.5c-5.33301 2.33301 -8 5.49902 -8 9.49902c0 8.66699 11 16.334 33 23.001c19.333 6 36 14.5 50 25.5s26 28.167 36 51.5c35.333 81.333 66.166 155.166 92.499 221.499l94.5 248.5c7.33301 20.667 12 40 14 58c2 0.666992 6.83301 2.16699 14.5 4.5
s14.834 5.83301 21.501 10.5c5.33301 4 9.5 10 12.5 18s5.16699 13.333 6.5 16c0.666992 0.666992 1.5 0.833984 2.5 0.500977s1.83301 -0.833008 2.5 -1.5c1.33301 -3.33301 2.5 -7 3.5 -11s2.16699 -7.66699 3.5 -11l178 -534c12.667 -36.667 26.667 -61.5 42 -74.5
s35 -21.5 59 -25.5c10.667 -2 18.834 -5.16699 24.501 -9.5s8.5 -8.83301 8.5 -13.5c0 -6.66699 -9.66699 -10 -29 -10l-54 2c-37.333 2.66699 -65.666 4 -84.999 4l-105 -1c-19.333 0 -29 4 -29 12c0 4 3.16699 7.83301 9.5 11.5s14.166 6.16699 23.499 7.5
c40.667 6.66699 61 21.667 61 45c0 21.333 -13 75.333 -39 162c-1.33301 4.66699 -3.83301 7.66699 -7.5 9s-10.167 2 -19.5 2h-189c-7.33301 0 -13 -6 -17 -18c-7.33301 -21.333 -16 -49.166 -26 -83.499s-15 -54.5 -15 -60.5c0 -14 5.5 -26 16.5 -36s24.833 -17 41.5 -21
c12 -3.33301 20.5 -6.33301 25.5 -9s7.5 -6.33398 7.5 -11.001c0 -7.33301 -9.66699 -11 -29 -11c-12 0 -22 0.333008 -30 1l-61 1c-11.333 0 -23.833 -0.5 -37.5 -1.5s-23.834 -1.5 -30.501 -1.5c-18.667 -2 -36 -3 -52 -3c-8.66699 0 -15.667 1.16699 -21 3.5z
M416 281.999c4 0 7.33301 0.333008 10 1s4 2 4 4l-2 10l-78 244c-4 12 -7 18 -9 18c-1.33301 0 -4 -5.66699 -8 -17l-91 -245l-2 -8c0 -3.33301 1.5 -5.33301 4.5 -6s8.5 -1 16.5 -1h155zM221 698.999c-2.66699 2 -4.00098 4.33301 -4.00098 7c0 4 2.33301 8 7 12l98 83
c10.667 9.33301 18.5 15.333 23.5 18s10.833 4 17.5 4s12.5 -1.33301 17.5 -4s12.833 -8.66699 23.5 -18l98 -83c4 -3.33301 6 -7.33301 6 -12c0 -3.33301 -1.16699 -6 -3.5 -8s-5.83301 -3 -10.5 -3c-6 0 -23.667 7 -53 21s-52 25.667 -68 35
c-3.33301 2.66699 -6.66602 4 -9.99902 4s-6.66602 -1.33301 -9.99902 -4c-15.333 -8.66699 -37.833 -20 -67.5 -34s-47.5 -21 -53.5 -21c-4.66699 0 -8.33398 1 -11.001 3z" />
    <glyph glyph-name="Atilde" unicode="&#xc3;" horiz-adv-x="692" 
d="M6 -1.5c-5.33301 2.33301 -8 5.49902 -8 9.49902c0 8.66699 11 16.334 33 23.001c19.333 6 36 14.5 50 25.5s26 28.167 36 51.5c35.333 81.333 66.166 155.166 92.499 221.499l94.5 248.5c7.33301 20.667 12 40 14 58c2 0.666992 6.83301 2.16699 14.5 4.5
s14.834 5.83301 21.501 10.5c5.33301 4 9.5 10 12.5 18s5.16699 13.333 6.5 16c0.666992 0.666992 1.5 0.833984 2.5 0.500977s1.83301 -0.833008 2.5 -1.5c1.33301 -3.33301 2.5 -7 3.5 -11s2.16699 -7.66699 3.5 -11l178 -534c12.667 -36.667 26.667 -61.5 42 -74.5
s35 -21.5 59 -25.5c10.667 -2 18.834 -5.16699 24.501 -9.5s8.5 -8.83301 8.5 -13.5c0 -6.66699 -9.66699 -10 -29 -10l-54 2c-37.333 2.66699 -65.666 4 -84.999 4l-105 -1c-19.333 0 -29 4 -29 12c0 4 3.16699 7.83301 9.5 11.5s14.166 6.16699 23.499 7.5
c40.667 6.66699 61 21.667 61 45c0 21.333 -13 75.333 -39 162c-1.33301 4.66699 -3.83301 7.66699 -7.5 9s-10.167 2 -19.5 2h-189c-7.33301 0 -13 -6 -17 -18c-7.33301 -21.333 -16 -49.166 -26 -83.499s-15 -54.5 -15 -60.5c0 -14 5.5 -26 16.5 -36s24.833 -17 41.5 -21
c12 -3.33301 20.5 -6.33301 25.5 -9s7.5 -6.33398 7.5 -11.001c0 -7.33301 -9.66699 -11 -29 -11c-12 0 -22 0.333008 -30 1l-61 1c-11.333 0 -23.833 -0.5 -37.5 -1.5s-23.834 -1.5 -30.501 -1.5c-18.667 -2 -36 -3 -52 -3c-8.66699 0 -15.667 1.16699 -21 3.5z
M416 281.999c4 0 7.33301 0.333008 10 1s4 2 4 4l-2 10l-78 244c-4 12 -7 18 -9 18c-1.33301 0 -4 -5.66699 -8 -17l-91 -245l-2 -8c0 -3.33301 1.5 -5.33301 4.5 -6s8.5 -1 16.5 -1h155zM240.5 697.499c-3.66699 3.66699 -5.50293 7.16699 -5.50293 10.5
s5.33301 12.166 16 26.499s22.5 27.5 35.5 39.5s23.167 18 30.5 18c26.667 0 49.334 -1 68.001 -3c29.333 -2.66699 50.666 -4 63.999 -4s26.333 6.33301 39 19c3.33301 3.33301 7 7.5 11 12.5s7 7.5 9 7.5c5.33301 0 9.83301 -1.66699 13.5 -5s5.5 -7.33301 5.5 -12
c0 -2.66699 -4.66699 -8.66699 -14 -18c-8 -8 -17 -18.333 -27 -31l-20 -25c-3.33301 -4.66699 -8.16602 -8.16699 -14.499 -10.5s-11.166 -3.5 -14.499 -3.5c-9.33301 0 -25 1 -47 3c-50 3.33301 -78 5 -84 5c-5.33301 0 -11.166 -1.16699 -17.499 -3.5
s-11.5 -5.16602 -15.5 -8.49902s-8.5 -8 -13.5 -14s-7.83301 -9 -8.5 -9c-3.33301 0 -6.83301 1.83301 -10.5 5.5z" />
    <glyph glyph-name="Adieresis" unicode="&#xc4;" horiz-adv-x="692" 
d="M6 -1.5c-5.33301 2.33301 -8 5.49902 -8 9.49902c0 8.66699 11 16.334 33 23.001c19.333 6 36 14.5 50 25.5s26 28.167 36 51.5c35.333 81.333 66.166 155.166 92.499 221.499l94.5 248.5c7.33301 20.667 12 40 14 58c2 0.666992 6.83301 2.16699 14.5 4.5
s14.834 5.83301 21.501 10.5c5.33301 4 9.5 10 12.5 18s5.16699 13.333 6.5 16c0.666992 0.666992 1.5 0.833984 2.5 0.500977s1.83301 -0.833008 2.5 -1.5c1.33301 -3.33301 2.5 -7 3.5 -11s2.16699 -7.66699 3.5 -11l178 -534c12.667 -36.667 26.667 -61.5 42 -74.5
s35 -21.5 59 -25.5c10.667 -2 18.834 -5.16699 24.501 -9.5s8.5 -8.83301 8.5 -13.5c0 -6.66699 -9.66699 -10 -29 -10l-54 2c-37.333 2.66699 -65.666 4 -84.999 4l-105 -1c-19.333 0 -29 4 -29 12c0 4 3.16699 7.83301 9.5 11.5s14.166 6.16699 23.499 7.5
c40.667 6.66699 61 21.667 61 45c0 21.333 -13 75.333 -39 162c-1.33301 4.66699 -3.83301 7.66699 -7.5 9s-10.167 2 -19.5 2h-189c-7.33301 0 -13 -6 -17 -18c-7.33301 -21.333 -16 -49.166 -26 -83.499s-15 -54.5 -15 -60.5c0 -14 5.5 -26 16.5 -36s24.833 -17 41.5 -21
c12 -3.33301 20.5 -6.33301 25.5 -9s7.5 -6.33398 7.5 -11.001c0 -7.33301 -9.66699 -11 -29 -11c-12 0 -22 0.333008 -30 1l-61 1c-11.333 0 -23.833 -0.5 -37.5 -1.5s-23.834 -1.5 -30.501 -1.5c-18.667 -2 -36 -3 -52 -3c-8.66699 0 -15.667 1.16699 -21 3.5z
M416 281.999c4 0 7.33301 0.333008 10 1s4 2 4 4l-2 10l-78 244c-4 12 -7 18 -9 18c-1.33301 0 -4 -5.66699 -8 -17l-91 -245l-2 -8c0 -3.33301 1.5 -5.33301 4.5 -6s8.5 -1 16.5 -1h155zM230.5 709.499c-9.66699 9.66699 -14.5 21.5 -14.5 35.5s4.83301 25.833 14.5 35.5
s21.5 14.5 35.5 14.5s25.833 -4.83301 35.5 -14.5s14.5 -21.5 14.5 -35.5s-4.83301 -25.833 -14.5 -35.5s-21.5 -14.5 -35.5 -14.5s-25.833 4.83301 -35.5 14.5zM425.5 709.499c-9.66699 9.66699 -14.5 21.5 -14.5 35.5s4.83301 25.833 14.5 35.5s21.5 14.5 35.5 14.5
s25.833 -4.83301 35.5 -14.5s14.5 -21.5 14.5 -35.5s-4.83301 -25.833 -14.5 -35.5s-21.5 -14.5 -35.5 -14.5s-25.833 4.83301 -35.5 14.5z" />
    <glyph glyph-name="Aring" unicode="&#xc5;" horiz-adv-x="692" 
d="M6 -1.5c-5.33301 2.33301 -8 5.49902 -8 9.49902c0 8.66699 11 16.334 33 23.001c19.333 6 36 14.5 50 25.5s26 28.167 36 51.5c35.333 81.333 66.166 155.166 92.499 221.499l94.5 248.5c7.33301 20.667 12 40 14 58c2 0.666992 6.83301 2.16699 14.5 4.5
s14.834 5.83301 21.501 10.5c5.33301 4 9.5 10 12.5 18s5.16699 13.333 6.5 16c0.666992 0.666992 1.5 0.833984 2.5 0.500977s1.83301 -0.833008 2.5 -1.5c1.33301 -3.33301 2.5 -7 3.5 -11s2.16699 -7.66699 3.5 -11l178 -534c12.667 -36.667 26.667 -61.5 42 -74.5
s35 -21.5 59 -25.5c10.667 -2 18.834 -5.16699 24.501 -9.5s8.5 -8.83301 8.5 -13.5c0 -6.66699 -9.66699 -10 -29 -10l-54 2c-37.333 2.66699 -65.666 4 -84.999 4l-105 -1c-19.333 0 -29 4 -29 12c0 4 3.16699 7.83301 9.5 11.5s14.166 6.16699 23.499 7.5
c40.667 6.66699 61 21.667 61 45c0 21.333 -13 75.333 -39 162c-1.33301 4.66699 -3.83301 7.66699 -7.5 9s-10.167 2 -19.5 2h-189c-7.33301 0 -13 -6 -17 -18c-7.33301 -21.333 -16 -49.166 -26 -83.499s-15 -54.5 -15 -60.5c0 -14 5.5 -26 16.5 -36s24.833 -17 41.5 -21
c12 -3.33301 20.5 -6.33301 25.5 -9s7.5 -6.33398 7.5 -11.001c0 -7.33301 -9.66699 -11 -29 -11c-12 0 -22 0.333008 -30 1l-61 1c-11.333 0 -23.833 -0.5 -37.5 -1.5s-23.834 -1.5 -30.501 -1.5c-18.667 -2 -36 -3 -52 -3c-8.66699 0 -15.667 1.16699 -21 3.5z
M416 281.999c4 0 7.33301 0.333008 10 1s4 2 4 4l-2 10l-78 244c-4 12 -7 18 -9 18c-1.33301 0 -4 -5.66699 -8 -17l-91 -245l-2 -8c0 -3.33301 1.5 -5.33301 4.5 -6s8.5 -1 16.5 -1h155zM419 825.499c16.667 -12.333 25 -28.501 25 -48.501c0 -22.667 -9 -41.167 -27 -55.5
s-39.333 -21.5 -64 -21.5c-22.667 0 -42.167 6.33301 -58.5 19s-24.5 29.334 -24.5 50.001c0 22 9.16699 40 27.5 54s39.5 21 63.5 21c22 0 41.333 -6.16699 58 -18.5zM326.5 736.498c9.66699 -9.66699 21.5 -14.5 35.5 -14.5c12 0 21.667 5 29 15s11 21.667 11 35
s-4.66699 24.833 -14 34.5s-20.666 14.5 -33.999 14.5c-12.667 0 -22.834 -4.83301 -30.501 -14.5s-11.5 -21.167 -11.5 -34.5c0 -14 4.83301 -25.833 14.5 -35.5z" />
    <glyph glyph-name="AE" unicode="&#xc6;" horiz-adv-x="872" 
d="M-5 6c0 4.66699 2.67188 8.66895 8.00488 12.002s13.666 6.66602 24.999 9.99902c16.667 4.66699 34.667 16.167 54 34.5s36 39.5 50 63.5l273 468c0.666992 1.33301 1 3 1 5c0 3.33301 -1.66699 6 -5 8s-7.66602 3.33301 -12.999 4l-88 15
c-6.66699 2.66699 -10 7 -10 13c0 3.33301 1 6.16602 3 8.49902s4.33301 3.5 7 3.5l67 -1c44 -1.33301 80 -2 108 -2c10.667 0 80 1 208 3l101 2c11.333 0 17.333 -3 18 -9c7.33301 -38.667 11.333 -73 12 -103c0 -2.66699 -1.5 -4.83398 -4.5 -6.50098
s-6.16699 -2.5 -9.5 -2.5s-5.66602 0.666992 -6.99902 2s-2.66602 4 -3.99902 8c-8 24 -15.667 40.333 -23 49c-16 18 -38.333 27 -67 27h-131c-7.33301 0 -15 -2.33301 -23 -7s-12 -11 -12 -19v-243c0 -6 1.66699 -11.167 5 -15.5s7.33301 -6.5 12 -6.5
c32 0 64 0.666992 96 2c17.333 0.666992 32 6.66699 44 18c4.66699 4 10.667 12 18 24c6 11.333 11.667 17 17 17c2.66699 0 5.66699 -1.66699 9 -5s4.66602 -7 3.99902 -11c-2 -22.667 -3 -42.334 -3 -59.001c0 -19.333 1 -43.666 3 -72.999c0 -11.333 -3 -17 -9 -17
s-11 2.5 -15 7.5s-6.66699 10.167 -8 15.5c-4.66699 14 -11.334 24.667 -20.001 32s-17.667 11.333 -27 12c-28 1.33301 -62.333 2 -103 2c-6.66699 0 -12.167 -2 -16.5 -6s-6.5 -9.66699 -6.5 -17v-158c0 -20.667 5.5 -38.5 16.5 -53.5s27.167 -22.5 48.5 -22.5h104
c5.33301 0 18 2 38 6s32.667 8 38 12c12.667 10 26.667 31 42 63c1.33301 3.33301 3 5.83301 5 7.5s4.33301 2.5 7 2.5c4 0 7.5 -1 10.5 -3s4.5 -4.66699 4.5 -8c0 -16.667 -1.5 -32.5 -4.5 -47.5s-7.16699 -33.5 -12.5 -55.5c-1.33301 -5.33301 -2.83301 -9.5 -4.5 -12.5
s-4.83398 -4.5 -9.50098 -4.5c-54.667 0 -108.667 1 -162 3c-16.667 0.666992 -41.334 1.33398 -74.001 2.00098s-62 1 -88 1c-18.667 0 -36 -1 -52 -3c-34 -2 -55 -3 -63 -3c-19.333 0 -29 3.66699 -29 11c0 4.66699 2.66699 8.33398 8 11.001s13.666 5 24.999 7
c25.333 4.66699 43.833 12.334 55.5 23.001s17.5 27 17.5 49v171c0 6 -1.33301 10.5 -4 13.5s-8.66699 4.5 -18 4.5h-141c-6.66699 0 -12.334 -2 -17.001 -6s-9 -9.66699 -13 -17c-28.667 -49.333 -56 -99.333 -82 -150c-6 -10.667 -9 -20.667 -9 -30
c0 -24 21.667 -41.333 65 -52c12 -3.33301 20.5 -6.33301 25.5 -9s7.5 -6.33398 7.5 -11.001c0 -7.33301 -9.66699 -11 -29 -11c-12 0 -22 0.333008 -30 1l-59 1c-16.667 0 -31 -0.333008 -43 -1s-22 -1.33398 -30 -2.00098c-18.667 -2 -36.334 -3 -53.001 -3
c-19.333 0 -29 3.66699 -29 11zM438.005 328.002c8 0 12.667 0.667969 14 2.00098s2 5.66602 2 12.999v237c0 12 -1 18 -3 18c-2.66699 0 -7 -5.66699 -13 -17l-136 -238c-2.66699 -4.66699 -4 -8 -4 -10c0 -3.33301 5.33301 -5 16 -5h124z" />
    <glyph glyph-name="Ccedilla" unicode="&#xc7;" horiz-adv-x="710" 
d="M230 27.5c-55.333 28.333 -99.8271 68.167 -133.494 119.5s-50.5 110 -50.5 176c0 63.333 17.667 120.833 53 172.5s82.666 92.5 141.999 122.5s123 45 191 45c34.667 0 62.834 -1.83301 84.501 -5.5s52.834 -10.5 93.501 -20.5
c9.33301 -2.66699 16.166 -6.66699 20.499 -12s7.16602 -12.666 8.49902 -21.999c5.33301 -52 8.33301 -90.333 9 -115c0.666992 -4 -0.833008 -7.5 -4.5 -10.5s-7.83398 -4.5 -12.501 -4.5c-8.66699 0 -14.334 4.66699 -17.001 14c-7.33301 28.667 -15.5 51.5 -24.5 68.5
s-21.5 31.167 -37.5 42.5c-16.667 10.667 -36.834 19 -60.501 25s-49.167 9 -76.5 9c-50.667 0 -96.334 -13.333 -137.001 -40s-72.667 -61.834 -96 -105.501s-35 -90.167 -35 -139.5c0 -55.333 11.667 -108.5 35 -159.5s55.833 -92.333 97.5 -124s89.167 -47.5 142.5 -47.5
c46 0 84.833 10.5 116.5 31.5s59.167 52.167 82.5 93.5c2 4 5 7.16699 9 9.5s7.66699 3.5 11 3.5c4 0 7.33301 -1.33301 10 -4s4 -6.66699 4 -12c0 -8 -3 -22.5 -9 -43.5s-12 -38.833 -18 -53.5c-5.33301 -9.33301 -9.33301 -15.333 -12 -18s-9.33398 -5.66699 -20.001 -9
c-23.333 -9.33301 -52 -16.5 -86 -21.5s-68.333 -7.5 -103 -7.5c-62.667 0 -121.667 14.167 -177 42.5zM301.506 -266.499c-7.66699 5.66699 -11.5 13.501 -11.5 23.501c0 10.667 1.5 19 4.5 25s6.83301 9 11.5 9c1.33301 0 6.33301 -2.16699 15 -6.5s24.667 -6.5 48 -6.5
c14 0 24.5 3.66699 31.5 11s10.5 16.666 10.5 27.999c0 18 -4.33301 31.5 -13 40.5s-20 13.5 -34 13.5c-4 0 -8.33301 -0.5 -13 -1.5s-9 -1.5 -13 -1.5c-8 0 -14.333 2 -19 6s-7 7.66699 -7 11c0 4.66699 2 9.66699 6 15l80 108h31l-37 -56
c-2.66699 -3.33301 -4 -6.66602 -4 -9.99902c0 -4.66699 3.33301 -8.66699 10 -12c16.667 -6.66699 31.834 -17.834 45.501 -33.501s20.5 -34.167 20.5 -55.5s-7.33301 -40.833 -22 -58.5s-32.167 -31.667 -52.5 -42s-38.5 -15.5 -54.5 -15.5
c-14.667 0 -25.834 2.83301 -33.501 8.5z" />
    <glyph glyph-name="Egrave" unicode="&#xc8;" horiz-adv-x="564" 
d="M37 6c0 4.66699 2.66992 8.33301 8.00293 11s13.666 5 24.999 7c26 4.66699 44.833 12.5 56.5 23.5s17.5 28.167 17.5 51.5v450c0 23.333 -4.83301 40.166 -14.5 50.499s-27.167 17.833 -52.5 22.5c-22 4 -33 10.667 -33 20c0 7.33301 9.66699 11 29 11
c25.333 0 56 -0.666992 92 -2l85 -1l137 1l85 2c11.333 0 17.333 -3 18 -9c1.33301 -5.33301 4.16602 -20 8.49902 -44s6.5 -43.667 6.5 -59c0 -10 -4.66699 -15 -14 -15c-3.33301 0 -5.66602 0.666992 -6.99902 2s-2.66602 4 -3.99902 8c-1.33301 3.33301 -4 12 -8 26
s-8.66699 23.667 -14 29c-16 18 -38.333 27 -67 27h-131c-6.66699 0 -14.334 -3.16699 -23.001 -9.5s-13 -13.833 -13 -22.5v-212c0 -6 1.83301 -11.167 5.5 -15.5s7.83398 -6.5 12.501 -6.5h99c18.667 0 31.667 3.33301 39 10s13.666 19.667 18.999 39
c4 14.667 10 22 18 22c2.66699 0 5.5 -1.5 8.5 -4.5s4.5 -6.83301 4.5 -11.5l-1 -26l-2 -44l1 -53l1 -24c0 -11.333 -3 -17 -9 -17c-10 0 -17.667 10.667 -23 32c-4 16 -9.5 27.5 -16.5 34.5s-16.833 10.5 -29.5 10.5h-93c-12.667 0 -21.5 -1.66699 -26.5 -5
s-7.5 -10.333 -7.5 -21v-192c0 -24.667 5.16699 -42 15.5 -52s27.166 -15 50.499 -15h74c22 0 40.167 1.33301 54.5 4s26.5 7 36.5 13c10 6.66699 19.167 15.834 27.5 27.501s18.166 28.167 29.499 49.5c4.66699 8.66699 9.33398 13 14.001 13c8.66699 0 13 -4.66699 13 -14
c0 -8.66699 -3.66699 -26.834 -11 -54.501s-14 -48.167 -20 -61.5c-0.666992 -1.33301 -1.66699 -3.66602 -3 -6.99902s-2.83301 -5.83301 -4.5 -7.5s-3.83398 -2.5 -6.50098 -2.5c-13.333 0 -72 1 -176 3c-46 2 -91.667 3 -137 3c-18.667 0 -36 -1 -52 -3
c-34 -2 -55 -3 -63 -3c-19.333 0 -29 3.66699 -29 11zM312.003 693.999l-45 34.001c-42 32 -70.333 54.667 -85 68c-4 3.33301 -7.16699 6.5 -9.5 9.5s-3.5 6.16699 -3.5 9.5c0 6 7.33301 11.333 22 16s26.667 7 36 7c12 0 21 -4.33301 27 -13
c28 -40.667 53.667 -80.334 77 -119.001c3.33301 -5.33301 5 -10.333 5 -15c0 -4 -2 -6 -6 -6s-10 3 -18 9z" />
    <glyph glyph-name="Eacute" unicode="&#xc9;" horiz-adv-x="564" 
d="M37 6c0 4.66699 2.66992 8.33301 8.00293 11s13.666 5 24.999 7c26 4.66699 44.833 12.5 56.5 23.5s17.5 28.167 17.5 51.5v450c0 23.333 -4.83301 40.166 -14.5 50.499s-27.167 17.833 -52.5 22.5c-22 4 -33 10.667 -33 20c0 7.33301 9.66699 11 29 11
c25.333 0 56 -0.666992 92 -2l85 -1l137 1l85 2c11.333 0 17.333 -3 18 -9c1.33301 -5.33301 4.16602 -20 8.49902 -44s6.5 -43.667 6.5 -59c0 -10 -4.66699 -15 -14 -15c-3.33301 0 -5.66602 0.666992 -6.99902 2s-2.66602 4 -3.99902 8c-1.33301 3.33301 -4 12 -8 26
s-8.66699 23.667 -14 29c-16 18 -38.333 27 -67 27h-131c-6.66699 0 -14.334 -3.16699 -23.001 -9.5s-13 -13.833 -13 -22.5v-212c0 -6 1.83301 -11.167 5.5 -15.5s7.83398 -6.5 12.501 -6.5h99c18.667 0 31.667 3.33301 39 10s13.666 19.667 18.999 39
c4 14.667 10 22 18 22c2.66699 0 5.5 -1.5 8.5 -4.5s4.5 -6.83301 4.5 -11.5l-1 -26l-2 -44l1 -53l1 -24c0 -11.333 -3 -17 -9 -17c-10 0 -17.667 10.667 -23 32c-4 16 -9.5 27.5 -16.5 34.5s-16.833 10.5 -29.5 10.5h-93c-12.667 0 -21.5 -1.66699 -26.5 -5
s-7.5 -10.333 -7.5 -21v-192c0 -24.667 5.16699 -42 15.5 -52s27.166 -15 50.499 -15h74c22 0 40.167 1.33301 54.5 4s26.5 7 36.5 13c10 6.66699 19.167 15.834 27.5 27.501s18.166 28.167 29.499 49.5c4.66699 8.66699 9.33398 13 14.001 13c8.66699 0 13 -4.66699 13 -14
c0 -8.66699 -3.66699 -26.834 -11 -54.501s-14 -48.167 -20 -61.5c-0.666992 -1.33301 -1.66699 -3.66602 -3 -6.99902s-2.83301 -5.83301 -4.5 -7.5s-3.83398 -2.5 -6.50098 -2.5c-13.333 0 -72 1 -176 3c-46 2 -91.667 3 -137 3c-18.667 0 -36 -1 -52 -3
c-34 -2 -55 -3 -63 -3c-19.333 0 -29 3.66699 -29 11zM259.003 690.999c0 4.66699 1.66699 9.66602 5 14.999c23.333 38.667 49 78.334 77 119.001c6 8.66699 15 13 27 13c9.33301 0 21.333 -2.33301 36 -7s22 -10 22 -16c0 -3.33301 -1.16699 -6.5 -3.5 -9.5
s-5.5 -6.16699 -9.5 -9.5c-14.667 -13.333 -43 -36 -85 -68l-45 -34c-8 -6 -14 -9 -18 -9s-6 2 -6 6z" />
    <glyph glyph-name="Ecircumflex" unicode="&#xca;" horiz-adv-x="564" 
d="M37 6c0 4.66699 2.66992 8.33301 8.00293 11s13.666 5 24.999 7c26 4.66699 44.833 12.5 56.5 23.5s17.5 28.167 17.5 51.5v450c0 23.333 -4.83301 40.166 -14.5 50.499s-27.167 17.833 -52.5 22.5c-22 4 -33 10.667 -33 20c0 7.33301 9.66699 11 29 11
c25.333 0 56 -0.666992 92 -2l85 -1l137 1l85 2c11.333 0 17.333 -3 18 -9c1.33301 -5.33301 4.16602 -20 8.49902 -44s6.5 -43.667 6.5 -59c0 -10 -4.66699 -15 -14 -15c-3.33301 0 -5.66602 0.666992 -6.99902 2s-2.66602 4 -3.99902 8c-1.33301 3.33301 -4 12 -8 26
s-8.66699 23.667 -14 29c-16 18 -38.333 27 -67 27h-131c-6.66699 0 -14.334 -3.16699 -23.001 -9.5s-13 -13.833 -13 -22.5v-212c0 -6 1.83301 -11.167 5.5 -15.5s7.83398 -6.5 12.501 -6.5h99c18.667 0 31.667 3.33301 39 10s13.666 19.667 18.999 39
c4 14.667 10 22 18 22c2.66699 0 5.5 -1.5 8.5 -4.5s4.5 -6.83301 4.5 -11.5l-1 -26l-2 -44l1 -53l1 -24c0 -11.333 -3 -17 -9 -17c-10 0 -17.667 10.667 -23 32c-4 16 -9.5 27.5 -16.5 34.5s-16.833 10.5 -29.5 10.5h-93c-12.667 0 -21.5 -1.66699 -26.5 -5
s-7.5 -10.333 -7.5 -21v-192c0 -24.667 5.16699 -42 15.5 -52s27.166 -15 50.499 -15h74c22 0 40.167 1.33301 54.5 4s26.5 7 36.5 13c10 6.66699 19.167 15.834 27.5 27.501s18.166 28.167 29.499 49.5c4.66699 8.66699 9.33398 13 14.001 13c8.66699 0 13 -4.66699 13 -14
c0 -8.66699 -3.66699 -26.834 -11 -54.501s-14 -48.167 -20 -61.5c-0.666992 -1.33301 -1.66699 -3.66602 -3 -6.99902s-2.83301 -5.83301 -4.5 -7.5s-3.83398 -2.5 -6.50098 -2.5c-13.333 0 -72 1 -176 3c-46 2 -91.667 3 -137 3c-18.667 0 -36 -1 -52 -3
c-34 -2 -55 -3 -63 -3c-19.333 0 -29 3.66699 -29 11zM156.003 698.999c-2.66699 2 -4.00098 4.33301 -4.00098 7c0 4 2.33301 8 7 12l98 83c10.667 9.33301 18.5 15.333 23.5 18s10.833 4 17.5 4s12.5 -1.33301 17.5 -4s12.833 -8.66699 23.5 -18l98 -83
c4 -3.33301 6 -7.33301 6 -12c0 -3.33301 -1.16699 -6 -3.5 -8s-5.83301 -3 -10.5 -3c-6 0 -23.667 7 -53 21s-52 25.667 -68 35c-3.33301 2.66699 -6.66602 4 -9.99902 4s-6.66602 -1.33301 -9.99902 -4c-15.333 -8.66699 -37.833 -20 -67.5 -34s-47.5 -21 -53.5 -21
c-4.66699 0 -8.33398 1 -11.001 3z" />
    <glyph glyph-name="Edieresis" unicode="&#xcb;" horiz-adv-x="564" 
d="M37 6c0 4.66699 2.66992 8.33301 8.00293 11s13.666 5 24.999 7c26 4.66699 44.833 12.5 56.5 23.5s17.5 28.167 17.5 51.5v450c0 23.333 -4.83301 40.166 -14.5 50.499s-27.167 17.833 -52.5 22.5c-22 4 -33 10.667 -33 20c0 7.33301 9.66699 11 29 11
c25.333 0 56 -0.666992 92 -2l85 -1l137 1l85 2c11.333 0 17.333 -3 18 -9c1.33301 -5.33301 4.16602 -20 8.49902 -44s6.5 -43.667 6.5 -59c0 -10 -4.66699 -15 -14 -15c-3.33301 0 -5.66602 0.666992 -6.99902 2s-2.66602 4 -3.99902 8c-1.33301 3.33301 -4 12 -8 26
s-8.66699 23.667 -14 29c-16 18 -38.333 27 -67 27h-131c-6.66699 0 -14.334 -3.16699 -23.001 -9.5s-13 -13.833 -13 -22.5v-212c0 -6 1.83301 -11.167 5.5 -15.5s7.83398 -6.5 12.501 -6.5h99c18.667 0 31.667 3.33301 39 10s13.666 19.667 18.999 39
c4 14.667 10 22 18 22c2.66699 0 5.5 -1.5 8.5 -4.5s4.5 -6.83301 4.5 -11.5l-1 -26l-2 -44l1 -53l1 -24c0 -11.333 -3 -17 -9 -17c-10 0 -17.667 10.667 -23 32c-4 16 -9.5 27.5 -16.5 34.5s-16.833 10.5 -29.5 10.5h-93c-12.667 0 -21.5 -1.66699 -26.5 -5
s-7.5 -10.333 -7.5 -21v-192c0 -24.667 5.16699 -42 15.5 -52s27.166 -15 50.499 -15h74c22 0 40.167 1.33301 54.5 4s26.5 7 36.5 13c10 6.66699 19.167 15.834 27.5 27.501s18.166 28.167 29.499 49.5c4.66699 8.66699 9.33398 13 14.001 13c8.66699 0 13 -4.66699 13 -14
c0 -8.66699 -3.66699 -26.834 -11 -54.501s-14 -48.167 -20 -61.5c-0.666992 -1.33301 -1.66699 -3.66602 -3 -6.99902s-2.83301 -5.83301 -4.5 -7.5s-3.83398 -2.5 -6.50098 -2.5c-13.333 0 -72 1 -176 3c-46 2 -91.667 3 -137 3c-18.667 0 -36 -1 -52 -3
c-34 -2 -55 -3 -63 -3c-19.333 0 -29 3.66699 -29 11zM165.503 709.499c-9.66699 9.66699 -14.5 21.5 -14.5 35.5s4.83301 25.833 14.5 35.5s21.5 14.5 35.5 14.5s25.833 -4.83301 35.5 -14.5s14.5 -21.5 14.5 -35.5s-4.83301 -25.833 -14.5 -35.5s-21.5 -14.5 -35.5 -14.5
s-25.833 4.83301 -35.5 14.5zM360.503 709.499c-9.66699 9.66699 -14.5 21.5 -14.5 35.5s4.83301 25.833 14.5 35.5s21.5 14.5 35.5 14.5s25.833 -4.83301 35.5 -14.5s14.5 -21.5 14.5 -35.5s-4.83301 -25.833 -14.5 -35.5s-21.5 -14.5 -35.5 -14.5
s-25.833 4.83301 -35.5 14.5z" />
    <glyph glyph-name="Igrave" unicode="&#xcc;" horiz-adv-x="340" 
d="M19 6c0 4.66699 2.66895 8.33398 8.00195 11.001s13.666 5 24.999 7c26.667 4.66699 46.334 12.5 59.001 23.5s19 27.833 19 50.5v452c0 23.333 -4.83301 40 -14.5 50s-27.167 17.333 -52.5 22c-22 4 -33 10.667 -33 20c0 7.33301 9.66699 11 29 11
c18.667 0 40 -0.666992 64 -2l53 -1l48 1c21.333 1.33301 41.666 2 60.999 2s29 -3.66699 29 -11c0 -9.33301 -11 -16 -33 -20c-26 -4.66699 -44.333 -12.167 -55 -22.5s-16 -26.833 -16 -49.5v-452c0 -22.667 6.5 -39.5 19.5 -50.5s32.833 -18.833 59.5 -23.5
c11.333 -2 19.666 -4.33301 24.999 -7s8 -6.33398 8 -11.001c0 -7.33301 -9.66699 -11 -29 -11c-24.667 0 -46 1 -64 3c-21.333 1.33301 -39 2 -53 2c-16.667 -0 -37 -0.666992 -61 -2c-20 -2 -42.333 -3 -67 -3c-19.333 0 -29 3.66699 -29 11zM184.002 694l-45 34.001
c-42 32 -70.333 54.667 -85 68c-4 3.33301 -7.16699 6.5 -9.5 9.5s-3.5 6.16699 -3.5 9.5c0 6 7.33301 11.333 22 16s26.667 7 36 7c12 0 21 -4.33301 27 -13c28 -40.667 53.667 -80.334 77 -119.001c3.33301 -5.33301 5 -10.333 5 -15c0 -4 -2 -6 -6 -6s-10 3 -18 9z" />
    <glyph glyph-name="Iacute" unicode="&#xcd;" horiz-adv-x="340" 
d="M19 6c0 4.66699 2.66895 8.33398 8.00195 11.001s13.666 5 24.999 7c26.667 4.66699 46.334 12.5 59.001 23.5s19 27.833 19 50.5v452c0 23.333 -4.83301 40 -14.5 50s-27.167 17.333 -52.5 22c-22 4 -33 10.667 -33 20c0 7.33301 9.66699 11 29 11
c18.667 0 40 -0.666992 64 -2l53 -1l48 1c21.333 1.33301 41.666 2 60.999 2s29 -3.66699 29 -11c0 -9.33301 -11 -16 -33 -20c-26 -4.66699 -44.333 -12.167 -55 -22.5s-16 -26.833 -16 -49.5v-452c0 -22.667 6.5 -39.5 19.5 -50.5s32.833 -18.833 59.5 -23.5
c11.333 -2 19.666 -4.33301 24.999 -7s8 -6.33398 8 -11.001c0 -7.33301 -9.66699 -11 -29 -11c-24.667 0 -46 1 -64 3c-21.333 1.33301 -39 2 -53 2c-16.667 -0 -37 -0.666992 -61 -2c-20 -2 -42.333 -3 -67 -3c-19.333 0 -29 3.66699 -29 11zM131.002 691
c0 4.66699 1.66699 9.66602 5 14.999c23.333 38.667 49 78.334 77 119.001c6 8.66699 15 13 27 13c9.33301 0 21.333 -2.33301 36 -7s22 -10 22 -16c0 -3.33301 -1.16699 -6.5 -3.5 -9.5s-5.5 -6.16699 -9.5 -9.5c-14.667 -13.333 -43 -36 -85 -68l-45 -34
c-8 -6 -14 -9 -18 -9s-6 2 -6 6z" />
    <glyph glyph-name="Icircumflex" unicode="&#xce;" horiz-adv-x="340" 
d="M19 6c0 4.66699 2.66895 8.33398 8.00195 11.001s13.666 5 24.999 7c26.667 4.66699 46.334 12.5 59.001 23.5s19 27.833 19 50.5v452c0 23.333 -4.83301 40 -14.5 50s-27.167 17.333 -52.5 22c-22 4 -33 10.667 -33 20c0 7.33301 9.66699 11 29 11
c18.667 0 40 -0.666992 64 -2l53 -1l48 1c21.333 1.33301 41.666 2 60.999 2s29 -3.66699 29 -11c0 -9.33301 -11 -16 -33 -20c-26 -4.66699 -44.333 -12.167 -55 -22.5s-16 -26.833 -16 -49.5v-452c0 -22.667 6.5 -39.5 19.5 -50.5s32.833 -18.833 59.5 -23.5
c11.333 -2 19.666 -4.33301 24.999 -7s8 -6.33398 8 -11.001c0 -7.33301 -9.66699 -11 -29 -11c-24.667 0 -46 1 -64 3c-21.333 1.33301 -39 2 -53 2c-16.667 -0 -37 -0.666992 -61 -2c-20 -2 -42.333 -3 -67 -3c-19.333 0 -29 3.66699 -29 11zM28.002 699
c-2.66699 2 -4.00098 4.33301 -4.00098 7c0 4 2.33301 8 7 12l98 83c10.667 9.33301 18.5 15.333 23.5 18s10.833 4 17.5 4s12.5 -1.33301 17.5 -4s12.833 -8.66699 23.5 -18l98 -83c4 -3.33301 6 -7.33301 6 -12c0 -3.33301 -1.16699 -6 -3.5 -8s-5.83301 -3 -10.5 -3
c-6 0 -23.667 7 -53 21s-52 25.667 -68 35c-3.33301 2.66699 -6.66602 4 -9.99902 4s-6.66602 -1.33301 -9.99902 -4c-15.333 -8.66699 -37.833 -20 -67.5 -34s-47.5 -21 -53.5 -21c-4.66699 0 -8.33398 1 -11.001 3z" />
    <glyph glyph-name="Idieresis" unicode="&#xcf;" horiz-adv-x="340" 
d="M19 6c0 4.66699 2.66895 8.33398 8.00195 11.001s13.666 5 24.999 7c26.667 4.66699 46.334 12.5 59.001 23.5s19 27.833 19 50.5v452c0 23.333 -4.83301 40 -14.5 50s-27.167 17.333 -52.5 22c-22 4 -33 10.667 -33 20c0 7.33301 9.66699 11 29 11
c18.667 0 40 -0.666992 64 -2l53 -1l48 1c21.333 1.33301 41.666 2 60.999 2s29 -3.66699 29 -11c0 -9.33301 -11 -16 -33 -20c-26 -4.66699 -44.333 -12.167 -55 -22.5s-16 -26.833 -16 -49.5v-452c0 -22.667 6.5 -39.5 19.5 -50.5s32.833 -18.833 59.5 -23.5
c11.333 -2 19.666 -4.33301 24.999 -7s8 -6.33398 8 -11.001c0 -7.33301 -9.66699 -11 -29 -11c-24.667 0 -46 1 -64 3c-21.333 1.33301 -39 2 -53 2c-16.667 -0 -37 -0.666992 -61 -2c-20 -2 -42.333 -3 -67 -3c-19.333 0 -29 3.66699 -29 11zM37.502 709.5
c-9.66699 9.66699 -14.5 21.5 -14.5 35.5s4.83301 25.833 14.5 35.5s21.5 14.5 35.5 14.5s25.833 -4.83301 35.5 -14.5s14.5 -21.5 14.5 -35.5s-4.83301 -25.833 -14.5 -35.5s-21.5 -14.5 -35.5 -14.5s-25.833 4.83301 -35.5 14.5zM232.502 709.5
c-9.66699 9.66699 -14.5 21.5 -14.5 35.5s4.83301 25.833 14.5 35.5s21.5 14.5 35.5 14.5s25.833 -4.83301 35.5 -14.5s14.5 -21.5 14.5 -35.5s-4.83301 -25.833 -14.5 -35.5s-21.5 -14.5 -35.5 -14.5s-25.833 4.83301 -35.5 14.5z" />
    <glyph glyph-name="Eth" unicode="&#xd0;" horiz-adv-x="754" 
d="M555 617.5c56.667 -27.667 98.167 -65.3311 124.5 -112.998s39.5 -101.834 39.5 -162.501c0 -62.667 -15.667 -120.834 -47 -174.501s-73.666 -96.167 -126.999 -127.5s-111.333 -47 -174 -47l-46 2c-73.333 3.33301 -127.333 5 -162 5
c-11.333 -0 -26.333 -0.666992 -45 -2c-14.667 -2 -34.667 -3 -60 -3c-19.333 0 -29 4.33301 -29 13c0 5.33301 2 8.66602 6 9.99902s13 3.33301 27 6c25.333 4.66699 42.833 12.334 52.5 23.001s14.5 28 14.5 52v218h-69c-4 0 -7.33301 2 -10 6s-4 8 -4 12
c0 4.66699 2.5 8.83398 7.5 12.501s10.5 5.5 16.5 5.5h59v196c0 23.333 -4.83301 40.166 -14.5 50.499s-27.167 17.833 -52.5 22.5c-12.667 2 -21.334 4.16699 -26.001 6.5s-7 6.16602 -7 11.499c0 8.66699 9.66699 13 29 13l57 -1c10 -0.666992 28 -1 54 -1
c27.333 0 61.666 1.66699 102.999 5c14 0.666992 26.833 1.33398 38.5 2.00098s21.5 1 29.5 1c86.667 0 158.334 -13.833 215.001 -41.5zM496.5 66.0029c40.333 25.333 71.668 60.501 94.001 105.501s33.5 96.167 33.5 153.5c0 61.333 -13.333 115 -40 161
s-61.5 81.167 -104.5 105.5s-87.833 36.5 -134.5 36.5c-35.333 0 -61.833 -1 -79.5 -3s-31.5 -7.33301 -41.5 -16s-15 -22.667 -15 -42v-214h168c3.33301 0 6.5 -1.16699 9.5 -3.5s4.5 -4.83301 4.5 -7.5l-1 -3c-8 -14.667 -18.333 -22 -31 -22h-150v-196
c0 -36.667 13.5 -61.334 40.5 -74.001s63.5 -19 109.5 -19c51.333 0 97.166 12.667 137.499 38z" />
    <glyph glyph-name="Ntilde" unicode="&#xd1;" horiz-adv-x="792" 
d="M629.5 0c-17.667 11.333 -33.5029 26.667 -47.5029 46c-5.33301 8 -44.166 54.667 -116.499 140l-157.5 187l-94 111c-8.66699 10.667 -15.667 16 -21 16c-3.33301 0 -5.66602 -2.16699 -6.99902 -6.5s-2 -9.16602 -2 -14.499c-3.33301 -164.667 -5 -289.667 -5 -375
c0 -45.333 21.333 -72 64 -80c11.333 -2 19.666 -4.33301 24.999 -7s8 -6.33398 8 -11.001c0 -7.33301 -9.66699 -11 -29 -11c-24.667 0 -43.667 1 -57 3c-13.333 1.33301 -25.666 2 -36.999 2c-10 -0 -21.667 -0.666992 -35 -2c-26 -2 -44.667 -3 -56 -3
c-19.333 0 -29 3.66699 -29 11c0 4 2.5 7.33301 7.5 10s13.5 5.66699 25.5 9c34 9.33301 53.333 36.666 58 81.999c4.66699 43.333 8.83398 101.833 12.501 175.5s5.5 148.5 5.5 224.5c0 32.667 -8.16699 57 -24.5 73s-41.166 29.333 -74.499 40
c-6 2 -12.667 5.16699 -20 9.5s-11 9.16602 -11 14.499s2.5 9 7.5 11s10.167 3 15.5 3l70 -3c32 -1.33301 60 -2 84 -2c5.33301 0 9.5 -1.16699 12.5 -3.5s6.83301 -6.83301 11.5 -13.5c8 -11.333 64.333 -80.666 169 -207.999l224 -272
c11.333 -13.333 19.666 -20 24.999 -20c6 0 9.33301 7 10 21c1.33301 50.667 2 186.334 2 407.001c-0.666992 12 -7.5 23.667 -20.5 35s-25.5 18 -37.5 20c-30 5.33301 -45 12 -45 20c0 3.33301 4.33301 6 13 8s18 3 28 3h57l50 1c21.333 1.33301 43 2 65 2
c19.333 0 29 -3.66699 29 -11c0 -9.33301 -11 -16 -33 -20c-24.667 -4.66699 -41 -10.667 -49 -18s-12.667 -19.333 -14 -36c-1.33301 -24 -2 -178.333 -2 -463c0 -26.667 1.33301 -52 4 -76l1 -21c0 -16.667 -7 -25 -21 -25c-8 0 -20.833 5.66699 -38.5 17z
M283.497 697.501c-3.66699 3.66699 -5.50293 7.16699 -5.50293 10.5s5.33301 12.166 16 26.499s22.5 27.5 35.5 39.5s23.167 18 30.5 18c26.667 0 49.334 -1 68.001 -3c29.333 -2.66699 50.666 -4 63.999 -4s26.333 6.33301 39 19c3.33301 3.33301 7 7.5 11 12.5
s7 7.5 9 7.5c5.33301 0 9.83301 -1.66699 13.5 -5s5.5 -7.33301 5.5 -12c0 -2.66699 -4.66699 -8.66699 -14 -18c-8 -8 -17 -18.333 -27 -31l-20 -25c-3.33301 -4.66699 -8.16602 -8.16699 -14.499 -10.5s-11.166 -3.5 -14.499 -3.5c-9.33301 0 -25 1 -47 3
c-50 3.33301 -78 5 -84 5c-5.33301 0 -11.166 -1.16699 -17.499 -3.5s-11.5 -5.16602 -15.5 -8.49902s-8.5 -8 -13.5 -14s-7.83301 -9 -8.5 -9c-3.33301 0 -6.83301 1.83301 -10.5 5.5z" />
    <glyph glyph-name="Ograve" unicode="&#xd2;" horiz-adv-x="763" 
d="M212.5 27.5c-51 27.667 -91.667 66.5 -122 116.5s-45.5 107 -45.5 171c0 61.333 13.333 118.666 40 171.999s65.667 96.166 117 128.499s112.666 48.5 183.999 48.5c58.667 0 113.5 -13.833 164.5 -41.5s91.667 -66.5 122 -116.5s45.5 -107 45.5 -171
c0 -61.333 -13.333 -118.666 -40 -171.999s-65.667 -96.166 -117 -128.499s-112.666 -48.5 -183.999 -48.5c-58.667 0 -113.5 13.833 -164.5 41.5zM563 95.5c39.333 46.333 59 109.831 59 190.498c0 63.333 -9.66699 120.333 -29 171s-47.833 90.834 -85.5 120.501
s-83.5 44.5 -137.5 44.5c-74 0 -130.667 -22.833 -170 -68.5s-59 -108.5 -59 -188.5c0 -63.333 9.5 -120.666 28.5 -171.999s47.333 -92 85 -122s83.5 -45 137.5 -45c74.667 0 131.667 23.167 171 69.5zM405 693.998l-45 34.001c-42 32 -70.333 54.667 -85 68
c-4 3.33301 -7.16699 6.5 -9.5 9.5s-3.5 6.16699 -3.5 9.5c0 6 7.33301 11.333 22 16s26.667 7 36 7c12 0 21 -4.33301 27 -13c28 -40.667 53.667 -80.334 77 -119.001c3.33301 -5.33301 5 -10.333 5 -15c0 -4 -2 -6 -6 -6s-10 3 -18 9z" />
    <glyph glyph-name="Oacute" unicode="&#xd3;" horiz-adv-x="763" 
d="M212.5 27.5c-51 27.667 -91.667 66.5 -122 116.5s-45.5 107 -45.5 171c0 61.333 13.333 118.666 40 171.999s65.667 96.166 117 128.499s112.666 48.5 183.999 48.5c58.667 0 113.5 -13.833 164.5 -41.5s91.667 -66.5 122 -116.5s45.5 -107 45.5 -171
c0 -61.333 -13.333 -118.666 -40 -171.999s-65.667 -96.166 -117 -128.499s-112.666 -48.5 -183.999 -48.5c-58.667 0 -113.5 13.833 -164.5 41.5zM563 95.5c39.333 46.333 59 109.831 59 190.498c0 63.333 -9.66699 120.333 -29 171s-47.833 90.834 -85.5 120.501
s-83.5 44.5 -137.5 44.5c-74 0 -130.667 -22.833 -170 -68.5s-59 -108.5 -59 -188.5c0 -63.333 9.5 -120.666 28.5 -171.999s47.333 -92 85 -122s83.5 -45 137.5 -45c74.667 0 131.667 23.167 171 69.5zM352 690.998c0 4.66699 1.66699 9.66602 5 14.999
c23.333 38.667 49 78.334 77 119.001c6 8.66699 15 13 27 13c9.33301 0 21.333 -2.33301 36 -7s22 -10 22 -16c0 -3.33301 -1.16699 -6.5 -3.5 -9.5s-5.5 -6.16699 -9.5 -9.5c-14.667 -13.333 -43 -36 -85 -68l-45 -34c-8 -6 -14 -9 -18 -9s-6 2 -6 6z" />
    <glyph glyph-name="Ocircumflex" unicode="&#xd4;" horiz-adv-x="763" 
d="M212.5 27.5c-51 27.667 -91.667 66.5 -122 116.5s-45.5 107 -45.5 171c0 61.333 13.333 118.666 40 171.999s65.667 96.166 117 128.499s112.666 48.5 183.999 48.5c58.667 0 113.5 -13.833 164.5 -41.5s91.667 -66.5 122 -116.5s45.5 -107 45.5 -171
c0 -61.333 -13.333 -118.666 -40 -171.999s-65.667 -96.166 -117 -128.499s-112.666 -48.5 -183.999 -48.5c-58.667 0 -113.5 13.833 -164.5 41.5zM563 95.5c39.333 46.333 59 109.831 59 190.498c0 63.333 -9.66699 120.333 -29 171s-47.833 90.834 -85.5 120.501
s-83.5 44.5 -137.5 44.5c-74 0 -130.667 -22.833 -170 -68.5s-59 -108.5 -59 -188.5c0 -63.333 9.5 -120.666 28.5 -171.999s47.333 -92 85 -122s83.5 -45 137.5 -45c74.667 0 131.667 23.167 171 69.5zM249 698.998c-2.66699 2 -4.00098 4.33301 -4.00098 7
c0 4 2.33301 8 7 12l98 83c10.667 9.33301 18.5 15.333 23.5 18s10.833 4 17.5 4s12.5 -1.33301 17.5 -4s12.833 -8.66699 23.5 -18l98 -83c4 -3.33301 6 -7.33301 6 -12c0 -3.33301 -1.16699 -6 -3.5 -8s-5.83301 -3 -10.5 -3c-6 0 -23.667 7 -53 21s-52 25.667 -68 35
c-3.33301 2.66699 -6.66602 4 -9.99902 4s-6.66602 -1.33301 -9.99902 -4c-15.333 -8.66699 -37.833 -20 -67.5 -34s-47.5 -21 -53.5 -21c-4.66699 0 -8.33398 1 -11.001 3z" />
    <glyph glyph-name="Otilde" unicode="&#xd5;" horiz-adv-x="763" 
d="M212.5 27.5c-51 27.667 -91.667 66.5 -122 116.5s-45.5 107 -45.5 171c0 61.333 13.333 118.666 40 171.999s65.667 96.166 117 128.499s112.666 48.5 183.999 48.5c58.667 0 113.5 -13.833 164.5 -41.5s91.667 -66.5 122 -116.5s45.5 -107 45.5 -171
c0 -61.333 -13.333 -118.666 -40 -171.999s-65.667 -96.166 -117 -128.499s-112.666 -48.5 -183.999 -48.5c-58.667 0 -113.5 13.833 -164.5 41.5zM563 95.5c39.333 46.333 59 109.831 59 190.498c0 63.333 -9.66699 120.333 -29 171s-47.833 90.834 -85.5 120.501
s-83.5 44.5 -137.5 44.5c-74 0 -130.667 -22.833 -170 -68.5s-59 -108.5 -59 -188.5c0 -63.333 9.5 -120.666 28.5 -171.999s47.333 -92 85 -122s83.5 -45 137.5 -45c74.667 0 131.667 23.167 171 69.5zM268.5 697.498c-3.66699 3.66699 -5.50293 7.16699 -5.50293 10.5
s5.33301 12.166 16 26.499s22.5 27.5 35.5 39.5s23.167 18 30.5 18c26.667 0 49.334 -1 68.001 -3c29.333 -2.66699 50.666 -4 63.999 -4s26.333 6.33301 39 19c3.33301 3.33301 7 7.5 11 12.5s7 7.5 9 7.5c5.33301 0 9.83301 -1.66699 13.5 -5s5.5 -7.33301 5.5 -12
c0 -2.66699 -4.66699 -8.66699 -14 -18c-8 -8 -17 -18.333 -27 -31l-20 -25c-3.33301 -4.66699 -8.16602 -8.16699 -14.499 -10.5s-11.166 -3.5 -14.499 -3.5c-9.33301 0 -25 1 -47 3c-50 3.33301 -78 5 -84 5c-5.33301 0 -11.166 -1.16699 -17.499 -3.5
s-11.5 -5.16602 -15.5 -8.49902s-8.5 -8 -13.5 -14s-7.83301 -9 -8.5 -9c-3.33301 0 -6.83301 1.83301 -10.5 5.5z" />
    <glyph glyph-name="Odieresis" unicode="&#xd6;" horiz-adv-x="763" 
d="M212.5 27.5c-51 27.667 -91.667 66.5 -122 116.5s-45.5 107 -45.5 171c0 61.333 13.333 118.666 40 171.999s65.667 96.166 117 128.499s112.666 48.5 183.999 48.5c58.667 0 113.5 -13.833 164.5 -41.5s91.667 -66.5 122 -116.5s45.5 -107 45.5 -171
c0 -61.333 -13.333 -118.666 -40 -171.999s-65.667 -96.166 -117 -128.499s-112.666 -48.5 -183.999 -48.5c-58.667 0 -113.5 13.833 -164.5 41.5zM563 95.5c39.333 46.333 59 109.831 59 190.498c0 63.333 -9.66699 120.333 -29 171s-47.833 90.834 -85.5 120.501
s-83.5 44.5 -137.5 44.5c-74 0 -130.667 -22.833 -170 -68.5s-59 -108.5 -59 -188.5c0 -63.333 9.5 -120.666 28.5 -171.999s47.333 -92 85 -122s83.5 -45 137.5 -45c74.667 0 131.667 23.167 171 69.5zM258.5 709.498c-9.66699 9.66699 -14.5 21.5 -14.5 35.5
s4.83301 25.833 14.5 35.5s21.5 14.5 35.5 14.5s25.833 -4.83301 35.5 -14.5s14.5 -21.5 14.5 -35.5s-4.83301 -25.833 -14.5 -35.5s-21.5 -14.5 -35.5 -14.5s-25.833 4.83301 -35.5 14.5zM453.5 709.498c-9.66699 9.66699 -14.5 21.5 -14.5 35.5s4.83301 25.833 14.5 35.5
s21.5 14.5 35.5 14.5s25.833 -4.83301 35.5 -14.5s14.5 -21.5 14.5 -35.5s-4.83301 -25.833 -14.5 -35.5s-21.5 -14.5 -35.5 -14.5s-25.833 4.83301 -35.5 14.5z" />
    <glyph glyph-name="multiply" unicode="&#xd7;" horiz-adv-x="600" 
d="M446 64l-141.999 143.003c-2 2.66699 -4.33301 2.66699 -7 0l-143 -143c-2.66699 -2.66699 -6 -4 -10 -4c-3.33301 0 -6 1 -8 3c-4.66699 4.66699 -9.5 10.667 -14.5 18s-7.5 14.333 -7.5 21c0 4.66699 1.66699 8.66699 5 12l134 134c2 2 2.83301 3.66699 2.5 5
s-1.5 3 -3.5 5l-129 128c-3.33301 3.33301 -5 8 -5 14c0 6.66699 2 14.167 6 22.5s7.33301 14.5 10 18.5c2.66699 2.66699 6 4 10 4s7 -1.33301 9 -4l143 -142c2.66699 -2.66699 4.5 -3.5 5.5 -2.5l1.5 1.5l144 143c3.33301 3.33301 6.66602 5 9.99902 5
c4 0 7 -1.66699 9 -5c1.33301 -2.66699 4.5 -8.33398 9.5 -17.001s7.5 -16.334 7.5 -23.001c0 -5.33301 -2.33301 -10.333 -7 -15l-131 -131c-1.33301 -1.33301 -1.33301 -3 0 -5l136 -136c3.33301 -3.33301 5 -7.33301 5 -12c0 -8.66699 -3.5 -17.834 -10.5 -27.501
s-13.5 -14.5 -19.5 -14.5c-4 0 -7.33301 1.33301 -10 4z" />
    <glyph glyph-name="Oslash" unicode="&#xd8;" horiz-adv-x="773" 
d="M641 550c24.667 -29.333 43.666 -62.0029 56.999 -98.0029s20 -75 20 -117c0 -61.333 -13.333 -118.666 -40 -171.999s-65.667 -96.166 -117 -128.499s-112.666 -48.5 -183.999 -48.5c-41.333 0 -81 7 -119 21s-72 33.667 -102 59l-77 -77c-2 -2 -5 -3 -9 -3
c-6.66699 0 -13 2 -19 6s-9 8.66699 -9 14c0 6.66699 3.33301 13.334 10 20.001l73 72c-25.333 28.667 -45 61.334 -59 98.001s-21 76.334 -21 119.001c0 61.333 13.333 118.666 40 171.999s65.667 96.166 117 128.499s112.666 48.5 183.999 48.5
c42 0 82.667 -7.33301 122 -22s74 -35.667 104 -63l80 79c2.66699 2.66699 6.33398 4 11.001 4c6.66699 0 11 -2.66699 13 -8c2 -8 3 -13 3 -15c0 -7.33301 -2.33301 -13.333 -7 -18zM184.999 156.997l371.999 368c-45.333 64.667 -107.666 97 -186.999 97
c-74 0 -130.667 -22.833 -170 -68.5s-59 -108.5 -59 -188.5s14.667 -149.333 44 -208zM578.998 487.997l-370 -368.999c44.667 -62 105.667 -93 183 -93c74.667 0 131.667 23.167 171 69.5s59 109.833 59 190.5c0 79.333 -14.333 146.666 -43 201.999z" />
    <glyph glyph-name="Ugrave" unicode="&#xd9;" horiz-adv-x="738" 
d="M172 54c-46 45.333 -69.002 107.333 -69.002 186v307c0 22 -4.33301 38.833 -13 50.5s-19.667 19.167 -33 22.5c-22 6 -33 13.333 -33 22c0 7.33301 9.66699 11 29 11l43 -1c21.333 -1.33301 39 -2 53 -2l48 1c8 0.666992 18.667 1 32 1c19.333 0 29 -3.66699 29 -11
c0 -4 -2.33301 -7.33301 -7 -10s-13.334 -6 -26.001 -10c-9.33301 -2.66699 -18.666 -10.834 -27.999 -24.501s-14 -29.5 -14 -47.5v-281c0 -77.333 19 -135.333 57 -174s89 -58 153 -58c66.667 0 116.5 23.167 149.5 69.5s49.5 109.833 49.5 190.5
c0 40.667 -1.33301 112.334 -4 215.001c-0.666992 28 -4.33398 52.167 -11.001 72.5s-16.667 32.5 -30 36.5c-22 6 -33 12.667 -33 20s9.66699 11 29 11l75 -1c12.667 0 28.334 0.666992 47.001 2l34 1c19.333 0 29 -3.66699 29 -11c0 -8.66699 -11 -15.334 -33 -20.001
c-31.333 -6 -48 -31 -50 -75c-2.66699 -40.667 -4.5 -82.167 -5.5 -124.5s-1.83301 -70.833 -2.5 -85.5c0 -19.333 -0.666992 -48.333 -2 -87c-1.33301 -50.667 -13.666 -96.167 -36.999 -136.5s-54.666 -71.666 -93.999 -93.999s-83.333 -33.5 -132 -33.5
c-87.333 0 -154 22.667 -200 68zM403.998 694l-45 34.001c-42 32 -70.333 54.667 -85 68c-4 3.33301 -7.16699 6.5 -9.5 9.5s-3.5 6.16699 -3.5 9.5c0 6 7.33301 11.333 22 16s26.667 7 36 7c12 0 21 -4.33301 27 -13c28 -40.667 53.667 -80.334 77 -119.001
c3.33301 -5.33301 5 -10.333 5 -15c0 -4 -2 -6 -6 -6s-10 3 -18 9z" />
    <glyph glyph-name="Uacute" unicode="&#xda;" horiz-adv-x="738" 
d="M172 54c-46 45.333 -69.002 107.333 -69.002 186v307c0 22 -4.33301 38.833 -13 50.5s-19.667 19.167 -33 22.5c-22 6 -33 13.333 -33 22c0 7.33301 9.66699 11 29 11l43 -1c21.333 -1.33301 39 -2 53 -2l48 1c8 0.666992 18.667 1 32 1c19.333 0 29 -3.66699 29 -11
c0 -4 -2.33301 -7.33301 -7 -10s-13.334 -6 -26.001 -10c-9.33301 -2.66699 -18.666 -10.834 -27.999 -24.501s-14 -29.5 -14 -47.5v-281c0 -77.333 19 -135.333 57 -174s89 -58 153 -58c66.667 0 116.5 23.167 149.5 69.5s49.5 109.833 49.5 190.5
c0 40.667 -1.33301 112.334 -4 215.001c-0.666992 28 -4.33398 52.167 -11.001 72.5s-16.667 32.5 -30 36.5c-22 6 -33 12.667 -33 20s9.66699 11 29 11l75 -1c12.667 0 28.334 0.666992 47.001 2l34 1c19.333 0 29 -3.66699 29 -11c0 -8.66699 -11 -15.334 -33 -20.001
c-31.333 -6 -48 -31 -50 -75c-2.66699 -40.667 -4.5 -82.167 -5.5 -124.5s-1.83301 -70.833 -2.5 -85.5c0 -19.333 -0.666992 -48.333 -2 -87c-1.33301 -50.667 -13.666 -96.167 -36.999 -136.5s-54.666 -71.666 -93.999 -93.999s-83.333 -33.5 -132 -33.5
c-87.333 0 -154 22.667 -200 68zM350.998 691c0 4.66699 1.66699 9.66602 5 14.999c23.333 38.667 49 78.334 77 119.001c6 8.66699 15 13 27 13c9.33301 0 21.333 -2.33301 36 -7s22 -10 22 -16c0 -3.33301 -1.16699 -6.5 -3.5 -9.5s-5.5 -6.16699 -9.5 -9.5
c-14.667 -13.333 -43 -36 -85 -68l-45 -34c-8 -6 -14 -9 -18 -9s-6 2 -6 6z" />
    <glyph glyph-name="Ucircumflex" unicode="&#xdb;" horiz-adv-x="738" 
d="M172 54c-46 45.333 -69.002 107.333 -69.002 186v307c0 22 -4.33301 38.833 -13 50.5s-19.667 19.167 -33 22.5c-22 6 -33 13.333 -33 22c0 7.33301 9.66699 11 29 11l43 -1c21.333 -1.33301 39 -2 53 -2l48 1c8 0.666992 18.667 1 32 1c19.333 0 29 -3.66699 29 -11
c0 -4 -2.33301 -7.33301 -7 -10s-13.334 -6 -26.001 -10c-9.33301 -2.66699 -18.666 -10.834 -27.999 -24.501s-14 -29.5 -14 -47.5v-281c0 -77.333 19 -135.333 57 -174s89 -58 153 -58c66.667 0 116.5 23.167 149.5 69.5s49.5 109.833 49.5 190.5
c0 40.667 -1.33301 112.334 -4 215.001c-0.666992 28 -4.33398 52.167 -11.001 72.5s-16.667 32.5 -30 36.5c-22 6 -33 12.667 -33 20s9.66699 11 29 11l75 -1c12.667 0 28.334 0.666992 47.001 2l34 1c19.333 0 29 -3.66699 29 -11c0 -8.66699 -11 -15.334 -33 -20.001
c-31.333 -6 -48 -31 -50 -75c-2.66699 -40.667 -4.5 -82.167 -5.5 -124.5s-1.83301 -70.833 -2.5 -85.5c0 -19.333 -0.666992 -48.333 -2 -87c-1.33301 -50.667 -13.666 -96.167 -36.999 -136.5s-54.666 -71.666 -93.999 -93.999s-83.333 -33.5 -132 -33.5
c-87.333 0 -154 22.667 -200 68zM247.998 699c-2.66699 2 -4.00098 4.33301 -4.00098 7c0 4 2.33301 8 7 12l98 83c10.667 9.33301 18.5 15.333 23.5 18s10.833 4 17.5 4s12.5 -1.33301 17.5 -4s12.833 -8.66699 23.5 -18l98 -83c4 -3.33301 6 -7.33301 6 -12
c0 -3.33301 -1.16699 -6 -3.5 -8s-5.83301 -3 -10.5 -3c-6 0 -23.667 7 -53 21s-52 25.667 -68 35c-3.33301 2.66699 -6.66602 4 -9.99902 4s-6.66602 -1.33301 -9.99902 -4c-15.333 -8.66699 -37.833 -20 -67.5 -34s-47.5 -21 -53.5 -21c-4.66699 0 -8.33398 1 -11.001 3z
" />
    <glyph glyph-name="Udieresis" unicode="&#xdc;" horiz-adv-x="738" 
d="M172 54c-46 45.333 -69.002 107.333 -69.002 186v307c0 22 -4.33301 38.833 -13 50.5s-19.667 19.167 -33 22.5c-22 6 -33 13.333 -33 22c0 7.33301 9.66699 11 29 11l43 -1c21.333 -1.33301 39 -2 53 -2l48 1c8 0.666992 18.667 1 32 1c19.333 0 29 -3.66699 29 -11
c0 -4 -2.33301 -7.33301 -7 -10s-13.334 -6 -26.001 -10c-9.33301 -2.66699 -18.666 -10.834 -27.999 -24.501s-14 -29.5 -14 -47.5v-281c0 -77.333 19 -135.333 57 -174s89 -58 153 -58c66.667 0 116.5 23.167 149.5 69.5s49.5 109.833 49.5 190.5
c0 40.667 -1.33301 112.334 -4 215.001c-0.666992 28 -4.33398 52.167 -11.001 72.5s-16.667 32.5 -30 36.5c-22 6 -33 12.667 -33 20s9.66699 11 29 11l75 -1c12.667 0 28.334 0.666992 47.001 2l34 1c19.333 0 29 -3.66699 29 -11c0 -8.66699 -11 -15.334 -33 -20.001
c-31.333 -6 -48 -31 -50 -75c-2.66699 -40.667 -4.5 -82.167 -5.5 -124.5s-1.83301 -70.833 -2.5 -85.5c0 -19.333 -0.666992 -48.333 -2 -87c-1.33301 -50.667 -13.666 -96.167 -36.999 -136.5s-54.666 -71.666 -93.999 -93.999s-83.333 -33.5 -132 -33.5
c-87.333 0 -154 22.667 -200 68zM257.498 709.5c-9.66699 9.66699 -14.5 21.5 -14.5 35.5s4.83301 25.833 14.5 35.5s21.5 14.5 35.5 14.5s25.833 -4.83301 35.5 -14.5s14.5 -21.5 14.5 -35.5s-4.83301 -25.833 -14.5 -35.5s-21.5 -14.5 -35.5 -14.5
s-25.833 4.83301 -35.5 14.5zM452.498 709.5c-9.66699 9.66699 -14.5 21.5 -14.5 35.5s4.83301 25.833 14.5 35.5s21.5 14.5 35.5 14.5s25.833 -4.83301 35.5 -14.5s14.5 -21.5 14.5 -35.5s-4.83301 -25.833 -14.5 -35.5s-21.5 -14.5 -35.5 -14.5
s-25.833 4.83301 -35.5 14.5z" />
    <glyph glyph-name="Yacute" unicode="&#xdd;" horiz-adv-x="578" 
d="M153 6c0 4.66699 2.66895 8.33594 8.00195 11.0029s13.666 5 24.999 7c52 9.33301 78 37.333 78 84v148c0 11.333 -2.83301 24.166 -8.5 38.499s-11.167 26.166 -16.5 35.499l-117 192c-36.667 58.667 -66.334 91.334 -89.001 98.001
c-11.333 4 -19.666 7.66699 -24.999 11s-8 7 -8 11c0 7.33301 9.66699 11 29 11l46 -1c29.333 -1.33301 53 -2 71 -2l48 1c8 0.666992 18.667 1 32 1c19.333 0 29 -3.66699 29 -11c0 -8 -11 -14.667 -33 -20c-11.333 -2.66699 -19.5 -5.83398 -24.5 -9.50098
s-7.5 -8.83398 -7.5 -15.501c0 -8.66699 4.33301 -20.667 13 -36l92 -170c13.333 -25.333 22.666 -38 27.999 -38c4 0 8 2.5 12 7.5s11 15.167 21 30.5c20 32 42 69.333 66 112c2.66699 5.33301 8.66699 16 18 32c12 20 18 37 18 51c0 19.333 -13.667 31 -41 35
c-7.33301 1.33301 -14.666 4 -21.999 8s-11 8 -11 12c0 7.33301 9.66699 11 29 11l75 -1c18.667 0 40.667 0.666992 66 2l38 1c19.333 0 29 -3.66699 29 -11c0 -4 -4.5 -8 -13.5 -12s-22.167 -8.33301 -39.5 -13c-16 -4.66699 -29.5 -13 -40.5 -25s-26.833 -34 -47.5 -66
l-111 -176c-12 -20 -19.167 -34.667 -21.5 -44s-3.5 -24.666 -3.5 -45.999v-152c0 -22.667 6.83301 -41.167 20.5 -55.5s33.167 -23.833 58.5 -28.5c11.333 -2 19.666 -4.33301 24.999 -7s8 -6.33398 8 -11.001c0 -7.33301 -9.66699 -11 -29 -11c-24.667 0 -46 1 -64 3
c-21.333 1.33301 -39 2 -53 2c-16.667 -0 -37 -0.666992 -61 -2c-20 -2 -42.333 -3 -67 -3c-19.333 0 -29 3.66699 -29 11zM281.002 691.002c0 4.66699 1.66699 9.66602 5 14.999c23.333 38.667 49 78.334 77 119.001c6 8.66699 15 13 27 13
c9.33301 0 21.333 -2.33301 36 -7s22 -10 22 -16c0 -3.33301 -1.16699 -6.5 -3.5 -9.5s-5.5 -6.16699 -9.5 -9.5c-14.667 -13.333 -43 -36 -85 -68l-45 -34c-8 -6 -14 -9 -18 -9s-6 2 -6 6z" />
    <glyph glyph-name="Thorn" unicode="&#xde;" horiz-adv-x="559" 
d="M22 6c0 4.66699 2.66602 8.33594 7.99902 11.0029s13.666 5 24.999 7c26.667 4.66699 46.5 12.667 59.5 24s19.5 28.333 19.5 51v450c0 22 -3.66699 38.667 -11 50s-22.666 19 -45.999 23c-22 4 -33 10.667 -33 20c0 7.33301 9.66699 11 29 11c20 0 40 -0.666992 60 -2
l44 -1l54 1c24 1.33301 45.667 2 65 2s29 -3.66699 29 -11c0 -9.33301 -11 -16 -33 -20c-26.667 -4.66699 -46.334 -12.334 -59.001 -23.001s-19 -27.334 -19 -50.001v-17c0 -5.33301 0.333008 -10 1 -14s2.33398 -6 5.00098 -6c4.66699 0.666992 9.33398 1.66699 14.001 3
s7.66699 2 9 2c18 4.66699 42 7 72 7c38.667 0 73.334 -7.33301 104.001 -22s55 -36.167 73 -64.5s27 -61.833 27 -100.5c0 -69.333 -25 -121.333 -75 -156s-112.667 -52 -188 -52c-5.33301 0 -11.333 0.5 -18 1.5s-12 1.5 -16 1.5c-5.33301 0 -8 -3 -8 -9v-27
c0 -20.667 6.66699 -36.667 20 -48s33 -19.333 59 -24c11.333 -2 19.666 -4.33301 24.999 -7s8 -6.33398 8 -11.001c0 -7.33301 -9.66699 -11 -29 -11c-24.667 0 -46 1 -64 3c-21.333 1.33301 -39 2 -53 2c-16 -0 -36.667 -0.666992 -62 -2c-18.667 -2 -41 -3 -67 -3
c-19.333 0 -29 3.66699 -29 11zM388.499 206.002c29.667 32 44.499 75 44.499 129c0 46 -11.333 84.333 -34 115s-56 46 -100 46c-24.667 0 -42.834 -2 -54.501 -6s-19.667 -11.167 -24 -21.5s-6.5 -26.5 -6.5 -48.5v-204c0 -19.333 4.83301 -33.833 14.5 -43.5
s21.834 -14.5 36.501 -14.5c52.667 0 93.834 16 123.501 48z" />
    </font>
</defs>
</svg>
